Жаль, что она блудница / Dommage qu'elle soit une putain (Лукино Висконти / Luchino Visconti) [16.04.1961, кинематограф, IPTVRip-AVC] DVO (Andi999) + Original (Fre) + Sub Rus (Lisok)


 

[Цитировать]

Жаль, что она блудница
Dommage qu'elle soit une putain- Дата/Год выпуска: 16.04.1961
Страна: Франция
Жанр: кинематограф
Продолжительность: 00:06:33
Перевод: Любительский (двухголосый закадровый) Andi999
Русские субтитры: есть
Формат субтитров: softsub (SRT)
Доп. информация о субтитрах: перевод Lisok, инициатор Алексей Проскуряков ака Aleks Punk
Оригинальная аудиодорожка: французский
Режиссер: Лукино Висконти / Luchino Visconti
Телеканал: inaВ ролях: Ален Делон / Alain Delon (Giovani), Роми Шнайдер / Romy Schneider (Annabelle)
Описание: "Жаль, что она блудница / Tis pity shees a whore" (1633) - пьеса Джона Форда, где он с гуманистических позиций оправдывает женщину, греховно полюбившую своего брата, что приводит к гибели обоих - в постановке Лукино Висконти.
В отрывке из спектакля Théâtre de Paris, специально снятого для телерепортажа на театральной сцене без публики, представлена исповедь (Акт I, сцена 2), когда Джованни решается рассказать о своей любви к Анабелле.
Доп. информация: Благодарность Aleks Punk за презент любителям кино в 79-й день рождения Алена Делона.

качество: IPTVRip-AVC
формат: MKV
Видео: AVC (H.264), 640x480 (4:3), 23,976 fps, ~1533 kbps avg, 0.208 bit/pixel
Аудио 1: AC3, 2 ch, 48 kHz, ~192.00 kbps avg - русский
Аудио 2: AC3, 2 ch, 48 kHz, ~192.00 kbps avg - французский

Пример субтитров

100:00:01,280 --> 00:00:02,624Подойди, сестра моя!
200:00:03,222 --> 00:00:04,800Дай мне руку.
300:00:05,588 --> 00:00:07,588Давай сделаем вместе несколько шагов!
400:00:08,468 --> 00:00:12,011Надеюсь, ты не станешь краснеть, гуляя со мной!
500:00:12,942 --> 00:00:15,965Здесь только ты и я.
600:00:16,182 --> 00:00:18,640- Что ты хочешь сказать? - Уверяю, я не думаю о плохом.
700:00:18,640 --> 00:00:21,005- О плохом? - Нет, правда, не думаю.
800:00:24,640 --> 00:00:25,874Как ты?
900:00:26,765 --> 00:00:28,582Очень хорошо, брат мой.
1000:00:29,120 --> 00:00:30,982А я, наоборот, очень болен.
1100:00:31,222 --> 00:00:33,245И боюсь,болезнь моя смертельна.
1200:00:33,240 --> 00:00:36,102О, Боже милостивый! Надеюсь, это не так!
1300:00:38,320 --> 00:00:41,817Мне кажется, ты меня любишь, сестра моя.
1400:00:42,697 --> 00:00:43,634Конечно!
1500:00:45,497 --> 00:00:46,834Ты это прекрасно знаешь.
1600:00:49,142 --> 00:00:50,754Конечно, знаю.
1700:00:53,931 --> 00:00:55,428Как ты красива!
1800:00:55,954 --> 00:00:57,908Как пара звёзд,
1900:00:58,091 --> 00:00:59,897твои глазаизлучают нежный блеск,
2000:00:59,965 --> 00:01:01,874что вдохнул бы жизнь даже в бесчувственный камень.

MediaInfo

ОбщееУникальный идентификатор : 190046498819318333564298011359046201537 (0x8EF99FD17BA9FD6CB5CE5B549F6AF0C1)Полное имя : H:\My Torrents\[apreder]Dommage_qu'elle_soit_une_putain(1961)IPTVRip.mkvФормат : MatroskaВерсия формата : Version 2Размер файла : 91,7 МбайтПродолжительность : 6 м. 33 с.Общий поток : 1956 Кбит/секДата кодирования : UTC 2015-07-15 15:21:53Программа кодирования : mkvmerge v8.1.0 ('Psychedelic Postcard') 64bitБиблиотека кодирования : libebml v1.3.1 + libmatroska v1.4.2Attachements : cover.png / cover_small.png
ВидеоИдентификатор : 1Формат : AVCФормат/Информация : Advanced Video CodecПрофиль формата : High@L4.1Параметр CABAC формата : ДаПараметр ReFrames формата : 16 кадровИдентификатор кодека : V_MPEG4/ISO/AVCПродолжительность : 6 м. 33 с.Битрейт : 1533 Кбит/секШирина : 640 пикселейВысота : 480 пикселейСоотношение сторон : 4:3Режим частоты кадров : ПостоянныйЧастота кадров : 23,976 кадра/секЦветовое пространство : YUVСубдискретизация насыщенности : 4:2:0Битовая глубина : 8 битТип развёртки : ПрогрессивнаяБит/(Пиксели*Кадры) : 0.208Размер потока : 71,9 Мбайт (78%)Default : ДаForced : Нет
Аудио #1Идентификатор : 2Формат : AC-3Формат/Информация : Audio Coding 3Расширение режима : CM (complete main)Параметр Endianness формата : BigИдентификатор кодека : A_AC3Продолжительность : 6 м. 33 с.Вид битрейта : ПостоянныйБитрейт : 192 Кбит/секКаналы : 2 каналаРасположение каналов : Front: L RЧастота : 48,0 КГцМетод сжатия : С потерямиРазмер потока : 9,00 Мбайт (10%)Язык : RussianDefault : НетForced : Нет
Аудио #2Идентификатор : 3Формат : AC-3Формат/Информация : Audio Coding 3Расширение режима : CM (complete main)Параметр Endianness формата : BigИдентификатор кодека : A_AC3Продолжительность : 6 м. 33 с.Вид битрейта : ПостоянныйБитрейт : 192 Кбит/секКаналы : 2 каналаРасположение каналов : Front: L RЧастота : 48,0 КГцМетод сжатия : С потерямиЗадержка видео : 3 мс.Размер потока : 9,00 Мбайт (10%)Язык : FrenchDefault : ДаForced : Нет
ТекстИдентификатор : 4Формат : UTF-8Идентификатор кодека : S_TEXT/UTF8Идентификатор кодека/Информация : UTF-8 Plain TextЯзык : RussianDefault : ДаForced : Нет

Скриншоты

Резервные скриншоты

-[1'893]



Показать сообщения:    

Текущее время: 03-Дек 09:51

Часовой пояс: UTC + 3


Вы не можете начинать темы
Вы не можете отвечать на сообщения
Вы не можете редактировать свои сообщения
Вы не можете удалять свои сообщения
Вы не можете голосовать в опросах
Вы не можете прикреплять файлы к сообщениям
Вы не можете скачивать файлы