Западня (И. Герасимова, Евгений Симонов, Владимир Шлезингер, Владимир Этуш) [1972, драма, WEB-DLRip] Государственный академический театр имени Е. Вахтангова


 

[Цитировать]

Западня
Название театра: Государственный академический театр имени Е. Вахтангова
Жанр: драма
Год выпуска: 1972
Продолжительность: 02:36:45
Режиссёр: Ирина Герасимова, Евгений Симонов, Владимир Шлезингер, Владимир Этуш
В ролях: Лариса Пашкова, Владимир Этуш, Инна Алабина, Дина Андреева, Анатолий Борисов, Вячеслав Дугин, Гарри Дунц, Любовь Корнева, Владимир Осенев, Агнесса Петерсон, Нина Русинова
Описание: Действие происходит в Париже и охватывает жизнь нескольких героев в течение почти двадцати лет. «Западня» - так называет кабачок, где проводят время герои и многочисленные персонажи Золя. Одна из главных героинь – Жервеза – под воздействием обстоятельств превращается из благополучной матери и жены в опустившуюся, продажную женщину, которая в итоге теряет все – мужа, дочь и себя.
Доп. информация:
По мотивам одноименного романа Э.Золя.
Семпл: http://sendfile.su/1136656
Качество видео: WEB-DLRip
Формат видео: AVI
Видео: XviD; 720x480; 4:3; 29.970 fps; 1708 Kbps
Аудио: Rus; MP3; 44.1 KHz; 128 Kbps; 2 channels

MediaInfo

General
Format : AVI
Format/Info : Audio Video Interleave
Format profile : OpenDML
File size : 2.02 GiB
Duration : 2h 36mn
Overall bit rate : 1 848 Kbps
Writing application : XviD4PSP 6.0 / 54.29.105
Video
ID : 0
Format : xvid
Codec ID : xvid
Duration : 2h 36mn
Bit rate : 1 708 Kbps
Width : 720 pixels
Height : 480 pixels
Display aspect ratio : 4:3
Frame rate : 29.970 fps
Standard : NTSC
Bits/(Pixel*Frame) : 0.165
Stream size : 1.87 GiB (92%)
Audio
ID : 1
Format : MPEG Audio
Format version : Version 1
Format profile : Layer 3
Mode : Joint stereo
Mode extension : MS Stereo
Codec ID : 55
Codec ID/Hint : MP3
Duration : 2h 36mn
Bit rate mode : Constant
Bit rate : 128 Kbps
Channel(s) : 2 channels
Sampling rate : 44.1 KHz
Compression mode : Lossy
Stream size : 144 MiB (7%)
Alignment : Aligned on interleaves
Interleave, duration : 26 ms (0.78 video frame)

Скриншот с названием постановки

Скриншоты










Показать сообщения:    

Текущее время: 10-Дек 11:52

Часовой пояс: UTC + 3


Вы не можете начинать темы
Вы не можете отвечать на сообщения
Вы не можете редактировать свои сообщения
Вы не можете удалять свои сообщения
Вы не можете голосовать в опросах
Вы не можете прикреплять файлы к сообщениям
Вы не можете скачивать файлы