Евгений Онегин. Первая глава. Читает Михаил Ульянов (Владимир Геллер) [1981 г., Литературные чтения, моноспектакль, WEB-DLRip]


 

[Цитировать]

Евгений Онегин. Первая глава. Читает Михаил Ульянов Год выпуска: 1981.
Жанр: Литературные чтения, моноспектакль.
Продолжительность: 00:53:41.
Режиссер: Владимир Геллер.
Исполнитель: Михаил Ульянов.
Описание:
Дата съемки май 1981 только Место съемки Ленинград ... вспомним, незабвенный Михаил Александрович Ульянов несколько лет назад... читал "Евгения Онегина". (из интервью К.Набутова 5-му каналу). Это все, что сохранилось в Интернете о том чтении на ЛенТВ. Оцифрована и сохранилась I глава. Качество записи - уж чем богаты. Но не все шумы в записи - помехи. Съемки и запись звука каждого эпизода производились непосредственно в местах действия романа. У Летнего сада на Лебяжьей канавке, под шум проезжающих автомобилей, в театре Юсуповского дворца, на Дворцовой набережной и т.д.
Дополнительная информация:
Страна: СССР .
Выпущено: Ленинградское телевидение.
Автор: Александр Сергеевич Пушкин.
Ведущий оператор: Борис Волох.
Композитор: Владислав Успенский.
Художник: Татьяна Ураевская.
Балетмейстер: Кирилл Ласкари.
Эстрадно-симфонический оркестр Ленинградского телевидения и радио.
Художественный руководитель и дирижер:
Станислав Горковенко.
В спектакле принимают участие артисты Ленинградских театров.
Вторая глава
Релиз
Рип lesik689.

Качество видео:...WEB-DLRip
Формат:.................AVI
Видео:..640x480 (1.33:1), 25 fps, XviD MPEG-4 ~1818 kbps avg, 0.24 bit/pixel
Аудио:..44.100 kHz, MPEG Layer 3, 2 ch, ~128.00 kbps avg

Отчет Media Info

General
Complete name : Evgenij.Onegin.1-ya.glava.Chitaet.Mihail.Ul'yanov.1981.XviD.WEB-DLRip.fenixclub.avi
Format : AVI
Format/Info : Audio Video Interleave
File size : 751 MiB
Duration : 53mn 40s
Overall bit rate : 1 956 Kbps
Writing application : VirtualDubMod 1.5.10.2 (build 2542/release)
Writing library : VirtualDubMod build 2542/release
Video
ID : 0
Format : MPEG-4 Visual
Format profile : Advanced Simple@L5
Format settings, BVOP : 1
Format settings, QPel : No
Format settings, GMC : No warppoints
Format settings, Matrix : Default (MPEG)
Muxing mode : Packed bitstream
Codec ID : XVID
Codec ID/Hint : XviD
Duration : 53mn 40s
Bit rate : 1 818 Kbps
Width : 640 pixels
Height : 480 pixels
Display aspect ratio : 5:4
Original display aspect rat : 4:3
Frame rate : 25.000 fps
Color space : YUV
Chroma subsampling : 4:2:0
Bit depth : 8 bits
Scan type : Progressive
Compression mode : Lossy
Bits/(Pixel*Frame) : 0.237
Stream size : 698 MiB (93%)
Writing library : XviD 64
Audio
ID : 1
Format : MPEG Audio
Format version : Version 1
Format profile : Layer 3
Mode : Joint stereo
Mode extension : MS Stereo
Codec ID : 55
Codec ID/Hint : MP3
Duration : 53mn 40s
Bit rate mode : Constant
Bit rate : 128 Kbps
Channel(s) : 2 channels
Sampling rate : 44.1 KHz
Compression mode : Lossy
Stream size : 49.0 MiB (7%)
Alignment : Split accross interleaves
Interleave, duration : 40 ms (0.99 video frame)
Interleave, preload duratio : 501 ms.

Скриншоты

Альтернативный хост




Показать сообщения:    

Текущее время: 08-Дек 12:55

Часовой пояс: UTC + 3


Вы не можете начинать темы
Вы не можете отвечать на сообщения
Вы не можете редактировать свои сообщения
Вы не можете удалять свои сообщения
Вы не можете голосовать в опросах
Вы не можете прикреплять файлы к сообщениям
Вы не можете скачивать файлы