Маленькая Баба-Яга (Анатолий Равикович, Анатолий Слясский) [1986, СССР, телеспектакль, сказка, экранизация, WEBRip]


 

[Цитировать]

Маленькая Баба-Яга Страна: СССР
Выпущено: Ленинградская студия телевидения
Жанр: телеспектакль, сказка, экранизация
Год выпуска: 1986
Продолжительность: 01:13:02
Режиссёр: Анатолий Равикович, Анатолий Слясский
В ролях: Ирина Мазуркевич, Владимир Мартьянов, Лариса Леонова, Лейла Киракосян, Сергей Лосев, Людмила Жукова, Нина Казаринова, Кирилл Датешидзе, Анатолий Пузырёв, Андрюша Лосевский, Катя Романова, Олег Айсин, Серёжа Тиваков, Анатолий Насибулин, Александр Лыков, Аркадий Коваль, Игорь Вуколов
Описание: По мотивам одноимённой весёлой, приключенческой, сказочной повести немецкого писателя Отфрида Пройслера (1923-2013) о доброй, шаловливой, озорной и справедливой ведьмочке, которая нарушает все правила, принятые в обществе ведьм, в переводе Юрия Коринца. Эта захватывающая история о том, как тяжело живется маленькой Бабе-Яге, когда ей всего 127 лет! Все свободное время нужно тратить на обучение колдовству, а это так скучно. Она решила поскорее стать настоящей хорошей ведьмой и отправилась туда, куда таким маленьким ведьмам ещё летать запрещается – на гору Блоксберг. Дело в том, что раз в году взрослые ведьмы собираются на горе, чтобы показать своё мастерство и посоревноваться во владении магией. А это совсем не безопасно для начинающих любопытных и дерзких ведьмочек. Что было дальше?.. Об этом лучше не рассказывать, а посмотреть. Но её мечта осуществилась, она стала хорошей ведьмой, то есть доброй волшебницей. Но на этом трудном и опасном пути ей пришлось выдержать настоящий экзамен у Верховной Колдуньи...
Семпл: http://multi-up.com/1058023
Качество видео: WEBRip
Формат видео: AVI
Видео: XviD, 640x480 (4:3), 25.000 fps, 1864 kbps avg
Аудио: Russian MPEG Layer 3, 48 kHz, 2 ch, 128.00 kbps avg

MediaInfo

General
Complete name : E:\Malenkaja.Baba.Jaga.1986\Malenkaja.Baba.Jaga.1986.WEBRip.avi
Format : AVI
Format/Info : Audio Video Interleave
File size : 1.02 GiB
Duration : 1h 13mn
Overall bit rate : 2 002 Kbps
Writing application : VirtualDubMod 1.5.10.2 (build 2540/release)
Writing library : VirtualDubMod build 2540/release
Video
ID : 0
Format : MPEG-4 Visual
Format profile : Advanced Simple@L5
Format settings, BVOP : 1
Format settings, QPel : No
Format settings, GMC : No warppoints
Format settings, Matrix : Default (H.263)
Codec ID : XVID
Codec ID/Hint : XviD
Duration : 1h 13mn
Bit rate : 1 864 Kbps
Width : 640 pixels
Height : 480 pixels
Display aspect ratio : 4:3
Frame rate : 25.000 fps
Color space : YUV
Chroma subsampling : 4:2:0
Bit depth : 8 bits
Scan type : Progressive
Compression mode : Lossy
Bits/(Pixel*Frame) : 0.253
Stream size : 974 MiB (93%)
Writing library : XviD 1.2.1 (UTC 2008-12-04)
Audio
ID : 1
Format : MPEG Audio
Format version : Version 1
Format profile : Layer 3
Codec ID : 55
Codec ID/Hint : MP3
Duration : 1h 13mn
Bit rate mode : Constant
Bit rate : 128 Kbps
Channel(s) : 2 channels
Sampling rate : 48.0 KHz
Compression mode : Lossy
Stream size : 66.9 MiB (6%)
Alignment : Aligned on interleaves
Interleave, duration : 42 ms (1.00 video frame)
Interleave, preload duratio : 504 ms
Writing library : LAME3.98r
Encoding settings : -m s -V 4 -q 2 -lowpass 17 -b 128

Скриншоты




Показать сообщения:    

Текущее время: 04-Дек 23:24

Часовой пояс: UTC + 3


Вы не можете начинать темы
Вы не можете отвечать на сообщения
Вы не можете редактировать свои сообщения
Вы не можете удалять свои сообщения
Вы не можете голосовать в опросах
Вы не можете прикреплять файлы к сообщениям
Вы не можете скачивать файлы