Машина Килиманджаро (Владимир Геллер) [1967, драма, WEB-DLRip]


 

[Цитировать]

Машина Килиманджаро
Жанр: драма
Год выпуска: 1967
Продолжительность: 00:38:57
Режиссёр: Владимир Геллер
В ролях: Ефим Копелян, Пётр Горин, Игнат Лейрер, Юрий Родионов, Анатолий Антосевич, Леонард Борисевич, Г.Воробьев, Виктор Грозовский, А.Жаров, Альберт Миров, Олег Мищук, Юлиан Панич
Описание: Чего стоит правильно прожитая жизнь, если человеку не удалось правильно умереть? Знаменитый писатель и путешественник вдохновлял всех своими произведениями. Но его могила в тихом городке была явно не к месту. Не должно быть так, чтобы такой человек покоился на холме в такой глуши. Он должен умереть где-нибудь на вершине Килиманджаро от клыков — надо только чтобы он сам это понял и согласился с этим...
Доп. информация:
Телеспектакль Ленинградского телевидения посвящен памяти Эрнеста Хэмингуэя по мотивам рассказа Рэя Бредбери.
Семпл: http://sendfile.su/1136223
Качество видео: WEB-DLRip
Формат видео: AVI
Видео: XviD; 640х480; 4:3; 25.000 fps; 1550 Kbps
Аудио: Rus; MP3; 44.1 KHz; 128 Kbps; 2 channels

MediaInfo

General
Format : AVI
Format/Info : Audio Video Interleave
File size : 471 MiB
Duration : 38mn 57s
Overall bit rate : 1 690 Kbps
Writing application : XviD4PSP 6.0 / 54.29.105
Video #0
ID : 0
Format : xvid
Codec ID : xvid
Duration : 38mn 57s
Bit rate : 1 550 Kbps
Width : 640 pixels
Height : 480 pixels
Display aspect ratio : 4:3
Frame rate : 25.000 fps
Bits/(Pixel*Frame) : 0.202
Stream size : 432 MiB (92%)
Audio #1
ID : 1
Format : MPEG Audio
Format version : Version 1
Format profile : Layer 3
Mode : Joint stereo
Mode extension : MS Stereo
Codec ID : 55
Codec ID/Hint : MP3
Duration : 38mn 57s
Bit rate mode : Constant
Bit rate : 128 Kbps
Channel(s) : 2 channels
Sampling rate : 44.1 KHz
Compression mode : Lossy
Stream size : 35.7 MiB (8%)
Alignment : Aligned on interleaves
Interleave, duration : 26 ms (0.65 video frame)
Writing library : LAME3.99.4ЄЄЄЄЄЄЄЄЄЄ

Скриншот с названием постановки

Скриншоты









Показать сообщения:    

Текущее время: 11-Дек 12:58

Часовой пояс: UTC + 3


Вы не можете начинать темы
Вы не можете отвечать на сообщения
Вы не можете редактировать свои сообщения
Вы не можете удалять свои сообщения
Вы не можете голосовать в опросах
Вы не можете прикреплять файлы к сообщениям
Вы не можете скачивать файлы