Моя жизнь (рассказ провинциала) (Дина Лукова) [1969, драма, WEB-DLRip]


 

[Цитировать]

Моя жизнь (рассказ провинциала)
Жанр: драма
Год выпуска: 1969
Продолжительность: 01:11:06
Режиссёр: Дина Лукова
В ролях: Олег Басилашвили, Бруно Фрейндлих, Майя Тупикова, Всеволод Кузнецов, Валентина Егоренкова, Владимир Эренберг, Михаил Екатерининский, Сергей Карнович-Валуа, Янина Комиссарова
Описание: Мисаил Полознев — провинциальный дворянин, сын всеми уважаемого архитектора. Ему уже 25 лет, а он никак не может найти свое место в жизни. Побывал и в телеграфистах, и в вольноопределяющихся, и в фармацевтах... В конце концов он начинает работать простым маляром. Среди жителей маленького городка, в котором правят кумовство и взяточничество, такое событие не может остаться незамеченным — общество отворачивается от героя. И невозможно предугадать, чем обернется выбор Мисаила. Преодолением нравственного кризиса, билетом в новую жизнь? Или добровольной изоляцией, регрессом, окончательным падением?
Доп. информация:
Телеспектакль Ленинградского телевидения по рассказам А. П. Чехова.
Семпл: http://sendfile.su/1135931
Качество видео: WEB-DLRip
Формат видео: AVI
Видео: XviD; 640x480; 4:3; 25.000 fps; 1324 Kbps
Аудио: Rus; MP3; 44.1 KHz; 128 Kbps; 2 channels

MediaInfo

General
Format : AVI
Format/Info : Audio Video Interleave
File size : 745 MiB
Duration : 1h 11mn
Overall bit rate : 1 464 Kbps
Writing application : MEncoder 1.0rc2-4.2.4
Writing library : MPlayer
Video #0
ID : 0
Format : MPEG-4 Visual
Format profile : Simple@L1
Format settings, BVOP : No
Format settings, QPel : No
Format settings, GMC : No warppoints
Format settings, Matrix : Default (H.263)
Codec ID : XVID
Codec ID/Hint : XviD
Duration : 1h 11mn
Bit rate : 1 324 Kbps
Width : 640 pixels
Height : 480 pixels
Display aspect ratio : 4:3
Frame rate : 25.000 fps
Color space : YUV
Chroma subsampling : 4:2:0
Bit depth : 8 bits
Scan type : Progressive
Compression mode : Lossy
Bits/(Pixel*Frame) : 0.172
Stream size : 673 MiB (90%)
Writing library : Lavc51.44.0
Audio #1
ID : 1
Format : MPEG Audio
Format version : Version 1
Format profile : Layer 3
Codec ID : 55
Codec ID/Hint : MP3
Duration : 1h 11mn
Bit rate mode : Constant
Bit rate : 128 Kbps
Channel(s) : 2 channels
Sampling rate : 44.1 KHz
Compression mode : Lossy
Stream size : 65.1 MiB (9%)
Alignment : Aligned on interleaves
Interleave, duration : 26 ms (0.65 video frame)
Interleave, preload duration : 522 ms

Скриншот с названием постановки

Скриншоты










Показать сообщения:    

Текущее время: 06-Дек 19:05

Часовой пояс: UTC + 3


Вы не можете начинать темы
Вы не можете отвечать на сообщения
Вы не можете редактировать свои сообщения
Вы не можете удалять свои сообщения
Вы не можете голосовать в опросах
Вы не можете прикреплять файлы к сообщениям
Вы не можете скачивать файлы