Ключ от пропасти (Инесса Мамышева) [1967, драма, WEB-DLRip]


 

[Цитировать]

Ключ от пропасти
Жанр: драма
Год выпуска: 1967
Продолжительность: 00:47:52
Режиссёр: Инесса Мамышева
В ролях: Юрий Шевчук, Георгий Тейх, Анна Парамонова, Елена Неверовская, Зинаида Караваева, Марк Никельберг
Описание: Пьеса Кшистофа Грущинского "Ключ от пропасти" направлена против угрозы войны. Летчик, который сбросил атомную бомбу на Хиросиму, решил постричься в монахи. Вся его семья приезжает в монастырь, чтобы спасти его от этого, как они считают, опрометчивого поступка...
Доп. информация:
Телеспектакль Ленинградского телевидения по пьесе Кшистофа Грущинского (Кшиштофа Грущиньского).
Семпл: http://sendfile.su/1135772
Качество видео: WEB-DLRip
Формат видео: AVI
Видео: XviD; 640x480; 4:3; 25.000 fps; 1529 Kbps
Аудио: Rus; MP3; 44.1 KHz; 128 Kbps; 2 channels

MediaInfo

General
Format : AVI
Format/Info : Audio Video Interleave
File size : 572 MiB
Duration : 47mn 52s
Overall bit rate : 1 669 Kbps
Writing application : XviD4PSP 6.0 / 54.29.105
Video #0
ID : 0
Format : xvid
Codec ID : xvid
Duration : 47mn 52s
Bit rate : 1 529 Kbps
Width : 640 pixels
Height : 480 pixels
Display aspect ratio : 4:3
Frame rate : 25.000 fps
Bits/(Pixel*Frame) : 0.199
Stream size : 524 MiB (92%)
Audio #1
ID : 1
Format : MPEG Audio
Format version : Version 1
Format profile : Layer 3
Mode : Joint stereo
Mode extension : MS Stereo
Codec ID : 55
Codec ID/Hint : MP3
Duration : 47mn 52s
Bit rate mode : Constant
Bit rate : 128 Kbps
Channel(s) : 2 channels
Sampling rate : 44.1 KHz
Compression mode : Lossy
Stream size : 43.8 MiB (8%)
Alignment : Aligned on interleaves
Interleave, duration : 26 ms (0.65 video frame)
Writing library : LAME3.99.4ЄЄЄЄЄЄЄЄЄЄ

Скриншот с названием постановки

Скриншоты









Показать сообщения:    

Текущее время: 08-Дек 01:21

Часовой пояс: UTC + 3


Вы не можете начинать темы
Вы не можете отвечать на сообщения
Вы не можете редактировать свои сообщения
Вы не можете удалять свои сообщения
Вы не можете голосовать в опросах
Вы не можете прикреплять файлы к сообщениям
Вы не можете скачивать файлы