Кориолан (Давид Карасик) [1968, трагедия, WEB-DLRip]


 

[Цитировать]

Кориолан
Жанр: трагедия
Год выпуска: 1968
Продолжительность: 01:17:04
Режиссёр: Давид Карасик
В ролях: Сергей Юрский, Лев Петропавловский, Николай Мартон, Александр Соколов, Герман Хованов, В. Попов (V), Владимир (Володя) Игнатьев (II), Михаил Матвеев, Виктор Рябов (II), Нина Василькова, Ирина Терешенкова, Владимир Эренберг, Сергей Карнович-Валуа, Адольф Шестаков, Виктор Костецкий, Владимир Тыкке, Станислав Чуркин, Леонард Секирин, Роман Литвинов, Владимир Горьков, Константин Смирнов, Рудольф Кульд, Леонард Тубелевич, Кирилл Чернозёмов, Валерий Кравченко, Анатолий Подшивалов, Сергей Иванов (II)
Описание: Кай Марций Кориолан — римский полководец окружен друзьями, любим близкими, пользуется уважением сограждан, за исключением своих политических соперников — народных трибунов. Он храбр, способен на добрый поступок. Будучи великолепным воином и полководцем, он начисто лишен способности участвовать в борьбе за политическую власть, когда необходимо поступаться своей гордостью, играть роль перед толпой, плебсом. И это губит его — римляне изгоняют Кориолана, обвинив в высокомерии и презрении к народу. Изгнанный в жажде мщения обращается к своим недавним врагам, вольскам, и идет с ними на Рим. Однако его семье удается уговорить Кориолана отказаться от задуманного - он отступает и гибнет от мечей разгневанных вольсков.
Доп. информация:
Телеспектакль Ленинградского телевидения по пьесе У. Шекспира "Кориолан".
Семпл: http://sendfile.su/1135605
Качество видео: WEB-DLRip
Формат видео: AVI
Видео: XviD; 640x480; 4:3; 25.000 fps; 1805 Kbps
Аудио: Rus; MP3; 44.1 KHz; 128 Kbps; 2 channels

MediaInfo

General
Format : AVI
Format/Info : Audio Video Interleave
File size : 1.04 GiB
Duration : 1h 17mn
Overall bit rate : 1 938 Kbps
Writing application : MEncoder 1.0rc2-4.2.4
Writing library : MPlayer
Video #0
ID : 0
Format : MPEG-4 Visual
Format profile : Simple@L1
Format settings, BVOP : No
Format settings, QPel : No
Format settings, GMC : No warppoints
Format settings, Matrix : Default (H.263)
Codec ID : XVID
Codec ID/Hint : XviD
Duration : 1h 17mn
Bit rate : 1 805 Kbps
Width : 640 pixels
Height : 480 pixels
Display aspect ratio : 4:3
Frame rate : 25.000 fps
Color space : YUV
Chroma subsampling : 4:2:0
Bit depth : 8 bits
Scan type : Progressive
Compression mode : Lossy
Bits/(Pixel*Frame) : 0.235
Stream size : 995 MiB (93%)
Writing library : Lavc51.44.0
Audio #1
ID : 1
Format : MPEG Audio
Format version : Version 1
Format profile : Layer 3
Codec ID : 55
Codec ID/Hint : MP3
Duration : 1h 17mn
Bit rate mode : Constant
Bit rate : 128 Kbps
Channel(s) : 2 channels
Sampling rate : 44.1 KHz
Compression mode : Lossy
Delay relative to video : 23ms
Stream size : 70.6 MiB (7%)
Alignment : Split accross interleaves
Interleave, duration : 500 ms (12.50 video frames)
Interleave, preload duration : 1000 ms

Скриншот с названием постановки

Скриншоты










Показать сообщения:    

Текущее время: 10-Дек 08:03

Часовой пояс: UTC + 3


Вы не можете начинать темы
Вы не можете отвечать на сообщения
Вы не можете редактировать свои сообщения
Вы не можете удалять свои сообщения
Вы не можете голосовать в опросах
Вы не можете прикреплять файлы к сообщениям
Вы не можете скачивать файлы