Кто есть кто? (Марк Розовский) [1977, СССР, комедия, телеспектакль, DVB]


 

[Цитировать]

Кто есть кто?
Страна: СССР
Жанр: комедия, телеспектакль
Год выпуска: 1977
Продолжительность: 01:02:06
Режиссёр: Марк Розовский
В ролях:
Михаил Державин
Роман Ткачук
Татьяна Егорова
Описание: В день 40-летия доктора наук, директора НИИ Андрея Андреевича Щукина к нему в дом приходит некто Щагин и заявляет, что Щукин — это он, и все заслуги настоящего Щукина по праву принадлежат ему, потому что в роддоме их перепутали...
Доп. информация:
Запись со спутника Eutelsat 36A/B, телеканал "Ноcтальгия".
Семпл: http://multi-up.com/1054572
Релиз:
Качество видео: DVB
Формат видео: MPEG-PS
Видео: MPEG-2, 720x576i, 25.000 fps, 4167 kbps
Аудио: Русский (MPEG Audio 2.0, 48 kHz, 192 kbps)

MediaInfo

Общее
Полное имя : E:\Кто есть кто_1977_DVB.mpg
Формат : MPEG-PS
Размер файла : 1,93 Гбайт
Продолжительность : 1 ч. 2 м.
Режим общего битрейта : Переменный
Общий поток : 4447 Кбит/сек
Видео
Идентификатор : 224 (0xE0)
Формат : MPEG Video
Версия формата : Version 2
Профиль формата : Main@Main
Параметр BVOP формата : Да
Параметр матрицы формата : Выборочная
Параметр GOP формата : Variable
Format_Settings_PictureStructure : Frame
Продолжительность : 1 ч. 2 м.
Вид битрейта : Переменный
Битрейт : 4167 Кбит/сек
Максимальный битрейт : 15,0 Мбит/сек
Ширина : 720 пикселей
Высота : 576 пикселей
Соотношение сторон : 4:3
Частота кадров : 25,000 кадров/сек
Стандарт вещания : PAL
Цветовое пространство : YUV
Субдискретизация насыщенности : 4:2:0
Битовая глубина : 8 бит
Тип развёртки : Чересстрочная
Порядок развёртки : Верхнее поле первое
Метод сжатия : С потерями
Бит/(Пиксели*Кадры) : 0.402
Временной код первого кадра : 00:00:02:00
Оригинал временного кода : Group of pictures header
Размер потока : 1,81 Гбайт (94%)
Аудио
Идентификатор : 192 (0xC0)
Формат : MPEG Audio
Версия формата : Version 1
Профиль формата : Layer 2
Продолжительность : 1 ч. 2 м.
Вид битрейта : Постоянный
Битрейт : 192 Кбит/сек
Каналы : 2 канала
Частота : 48,0 КГц
Метод сжатия : С потерями
Задержка видео : -1 с. 64 мс.
Размер потока : 85,3 Мбайт (4%)

Скриншот с названием постановки

Скриншоты




Показать сообщения:    

Текущее время: 10-Дек 04:10

Часовой пояс: UTC + 3


Вы не можете начинать темы
Вы не можете отвечать на сообщения
Вы не можете редактировать свои сообщения
Вы не можете удалять свои сообщения
Вы не можете голосовать в опросах
Вы не можете прикреплять файлы к сообщениям
Вы не можете скачивать файлы