Этот фантастический мир. Выпуск 14. Умение кидать мяч (Виктор Спиридонов) [1988, СССР, фантастика, телеспектакль, DVB]


 

[Цитировать]

Этот фантастический мир. Выпуск 14. Умение кидать мяч
Страна: СССР
Жанр: фантастика, телеспектакль
Год выпуска: 1988
Продолжительность: 01:30:17
Режиссёр: Виктор Спиридонов
В ролях:
Александр Пороховщиков — учёный
Владимир Сальников — Герман Коленкин
Александр Потапов — тренер
Владимир Долинский — врач
Н. Золотова, К. Ионова — баскетболистки
Описание: По мотивам рассказов Кира Булычёва «Летнее утро», «Умение кидать мяч». Обычный человек может оказаться не готов к появлению искусственно вызванных необычных способностей.
Доп. информация:
Запись со спутника Eutelsat 36A/B, телеканал "Ноcтальгия".
Семпл: http://multi-up.com/1054247
Релиз:
Качество видео: DVB
Формат видео: MPEG-PS
Видео: MPEG-2, 720x576i, 25.000 fps, 3898 kbps
Аудио: Русский (MPEG Audio 2.0, 48 kHz, 192 kbps)

MediaInfo

Общее
Общее
Полное имя : O:\ЭФМ_выпуск_14_Умение кидать мяч_1988_DVB.mpg
Формат : MPEG-PS
Размер файла : 2,63 Гбайт
Продолжительность : 1 ч. 30 м.
Режим общего битрейта : Переменный
Общий поток : 4173 Кбит/сек
Видео
Идентификатор : 224 (0xE0)
Формат : MPEG Video
Версия формата : Version 2
Профиль формата : Main@Main
Параметр BVOP формата : Да
Параметр матрицы формата : Выборочная
Параметр GOP формата : M=3, N=36
Format_Settings_PictureStructure : Frame
Продолжительность : 1 ч. 30 м.
Вид битрейта : Переменный
Битрейт : 3898 Кбит/сек
Максимальный битрейт : 15,0 Мбит/сек
Ширина : 720 пикселей
Высота : 576 пикселей
Соотношение сторон : 4:3
Частота кадров : 25,000 кадров/сек
Стандарт вещания : PAL
Цветовое пространство : YUV
Субдискретизация насыщенности : 4:2:0
Битовая глубина : 8 бит
Тип развёртки : Чересстрочная
Порядок развёртки : Верхнее поле первое
Метод сжатия : С потерями
Бит/(Пиксели*Кадры) : 0.376
Временной код первого кадра : 00:00:01:00
Оригинал временного кода : Group of pictures header
Размер потока : 2,46 Гбайт (93%)
Аудио
Идентификатор : 192 (0xC0)
Формат : MPEG Audio
Версия формата : Version 1
Профиль формата : Layer 2
Продолжительность : 1 ч. 30 м.
Вид битрейта : Постоянный
Битрейт : 192 Кбит/сек
Каналы : 2 канала
Частота : 48,0 КГц
Метод сжатия : С потерями
Задержка видео : -311 мс.
Размер потока : 124 Мбайт (5%)

Скриншот с названием постановки

Скриншоты




Показать сообщения:    

Текущее время: 24-Янв 12:13

Часовой пояс: UTC + 3


Вы не можете начинать темы
Вы не можете отвечать на сообщения
Вы не можете редактировать свои сообщения
Вы не можете удалять свои сообщения
Вы не можете голосовать в опросах
Вы не можете прикреплять файлы к сообщениям
Вы не можете скачивать файлы