Этот фантастический мир. Выпуск 12. С роботами не шутят (Тамара Павлюченко) [1987, СССР, фантастика, телеспектакль, DVB]


 

[Цитировать]

Этот фантастический мир. Выпуск 12. С роботами не шутят
Страна: СССР
Жанр: фантастика, телеспектакль
Год выпуска: 1987
Продолжительность: 01:18:55
Режиссёр: Тамара Павлюченко
В ролях:
Вацлав Дворжецкий — господин Ганн
Александр Вокач — придворный Йоган
Всеволод Шиловский — аферист Митчел
Виктор Сергачёв — директор доктор Дженнинг
Борис Плотников — робот-телепат RB-34 (Эрби)
Наталья Назарова — робопсихолог Сьюзен Келвин
Александр Дик — математический помощник Богерт
Михаил Басов — технолог роботехники Эш
Авангард Леонтьев — подсудимый человек Иуханес Миколас Персен
Виталий Бабенко — потерпевший-робот Максиконсум
Вячеслав Зайцев — машинист вагона у трапа к поезду
Владлен Давыдов — адвокат-человек
Юрий Богатырёв — прокурор-робот
Вячеслав Жолобов — судья-робот
Игорь Золотовицкий, Андрей Давыдов, Владимир Стержаков — роботы-присяжные заседатели
И. Васильева — Ингрид, невеста Персена
Массовка в эпизоде «Суд» — манекенщики Московского дома моды Вячеслава Зайцева
Описание: Выпуск посвящен отношениям между роботами и людьми. Гость студии — Владимир Гаков.
Были экранизированы следующие произведения:
Александр Беляев «Сезам, откройся!!!»: рассказ о том, как вор, замаскированный под робота-слугу, обокрал почтенного аристократа с элегантностью Арсена Люпена.
Айзек Азимов «Лжец»: повествование о роботе, умевшем читать мысли и оказавшемся самым человечным среди людей.
Фредерик Чиландер «Суд» («Судебный процесс»): о том, как размножившиеся роботы, уже практически вытеснившие человека, расчищают себе жизненное пространство: «подставляют», устраивают формальный суд и казнят последних людей.
Доп. информация:
Запись со спутника Eutelsat 36A/B, телеканал "Ноcтальгия".
Семпл: http://multi-up.com/1054240
Релиз:
Качество видео: DVB
Формат видео: MPG
Видео: MPEG-2, 720x576i, 25.000 fps, 4851 kbps
Аудио: Русский (MPEG Audio 2.0, 48 kHz, 192 kbps)

MediaInfo

Общее
Общее
Полное имя : O:\ЭФМ_выпуск_12_С роботами не шутят_1987_DVB.mpg
Формат : MPEG-PS
Размер файла : 2,84 Гбайт
Продолжительность : 1 ч. 18 м.
Режим общего битрейта : Переменный
Общий поток : 5145 Кбит/сек
Видео
Идентификатор : 224 (0xE0)
Формат : MPEG Video
Версия формата : Version 2
Профиль формата : Main@Main
Параметр BVOP формата : Да
Параметр матрицы формата : Выборочная
Параметр GOP формата : Variable
Format_Settings_PictureStructure : Frame
Продолжительность : 1 ч. 18 м.
Вид битрейта : Переменный
Битрейт : 4851 Кбит/сек
Максимальный битрейт : 15,0 Мбит/сек
Ширина : 720 пикселей
Высота : 576 пикселей
Соотношение сторон : 4:3
Частота кадров : 25,000 кадров/сек
Стандарт вещания : PAL
Цветовое пространство : YUV
Субдискретизация насыщенности : 4:2:0
Битовая глубина : 8 бит
Тип развёртки : Чересстрочная
Порядок развёртки : Верхнее поле первое
Метод сжатия : С потерями
Бит/(Пиксели*Кадры) : 0.468
Временной код первого кадра : 00:00:01:00
Оригинал временного кода : Group of pictures header
Размер потока : 2,67 Гбайт (94%)
Аудио
Идентификатор : 192 (0xC0)
Формат : MPEG Audio
Версия формата : Version 1
Профиль формата : Layer 2
Продолжительность : 1 ч. 18 м.
Вид битрейта : Постоянный
Битрейт : 192 Кбит/сек
Каналы : 2 канала
Частота : 48,0 КГц
Метод сжатия : С потерями
Задержка видео : -832 мс.
Размер потока : 108 Мбайт (4%)

Скриншот с названием постановки

Скриншоты




Показать сообщения:    

Текущее время: 09-Дек 20:30

Часовой пояс: UTC + 3


Вы не можете начинать темы
Вы не можете отвечать на сообщения
Вы не можете редактировать свои сообщения
Вы не можете удалять свои сообщения
Вы не можете голосовать в опросах
Вы не можете прикреплять файлы к сообщениям
Вы не можете скачивать файлы