Этот фантастический мир. Выпуск 11. Случай с полковником Дарвином (Тамара Павлюченко) [1985, СССР, фантастика, телеспектакль, DVB]


 

[Цитировать]

Этот фантастический мир. Выпуск 11. Случай с полковником Дарвином
Страна: СССР
Жанр: фантастика, телеспектакль
Год выпуска: 1985
Продолжительность: 01:07:16
Режиссёр: Тамара Павлюченко
В ролях:
Эдуард Марцевич — полковник Дарвин
Роман Козак — астронавт Дик
Виталий Коняев — Джонни
Леонид Каюров — сержант Макинрой, пацифист
Наталья Негода — Кэт, секретарша полковника Дарвина
Евгений Хорошевцев — доктор Скотт
Наталья Назарова — «голос» подводной лодки
Описание: В этом выпуске представлены инсценировки по мотивам рассказов «Мятеж шлюпки» (Роберт Шекли) и «Ржавчина» (Рэй Бредбери).
Полковника ВВС, бывшего астронавта Грега Дарвина навещает его старый приятель, Джонни. Разговорившись, Грег открывает Джонни тайну из своего прошлого. Во время службы в космической разведке Дарвин вместе с другим астронавтом, Диком, был отправлен с секретной миссией на планету, пережившую опустошительную ядерную войну. По заданию командования Грег и Дик должны были на обезлюдевшей планете найти оставшееся оружие, аналогов которого на Земле ещё не существовало…
Доп. информация:
Запись со спутника Eutelsat 36A/B, телеканал "Ноcтальгия".
Семпл: http://multi-up.com/1054235
Релиз:
Качество видео: DVB
Формат видео: MPEG-PS
Видео: MPEG-2, 720x576i, 25.000 fps, 2839 kbps
Аудио: Русский (MPEG Audio 2.0, 48 kHz, 192 kbps)

MediaInfo

Общее
Полное имя : O:\ЭФМ_выпуск_11_Случай с полковником Дарвином_1985_DVB.mpg
Формат : MPEG-PS
Размер файла : 1,45 Гбайт
Продолжительность : 1 ч. 7 м.
Режим общего битрейта : Переменный
Общий поток : 3093 Кбит/сек
Видео
Идентификатор : 224 (0xE0)
Формат : MPEG Video
Версия формата : Version 2
Профиль формата : Main@Main
Параметр BVOP формата : Да
Параметр матрицы формата : Выборочная
Параметр GOP формата : M=3, N=36
Format_Settings_PictureStructure : Frame
Продолжительность : 1 ч. 7 м.
Вид битрейта : Переменный
Битрейт : 2839 Кбит/сек
Максимальный битрейт : 15,0 Мбит/сек
Ширина : 720 пикселей
Высота : 576 пикселей
Соотношение сторон : 4:3
Частота кадров : 25,000 кадров/сек
Стандарт вещания : PAL
Цветовое пространство : YUV
Субдискретизация насыщенности : 4:2:0
Битовая глубина : 8 бит
Тип развёртки : Чересстрочная
Порядок развёртки : Верхнее поле первое
Метод сжатия : С потерями
Бит/(Пиксели*Кадры) : 0.274
Временной код первого кадра : 00:00:02:00
Оригинал временного кода : Group of pictures header
Размер потока : 1,33 Гбайт (92%)
Аудио
Идентификатор : 192 (0xC0)
Формат : MPEG Audio
Версия формата : Version 1
Профиль формата : Layer 2
Продолжительность : 1 ч. 7 м.
Вид битрейта : Постоянный
Битрейт : 192 Кбит/сек
Каналы : 2 канала
Частота : 48,0 КГц
Метод сжатия : С потерями
Задержка видео : -1 с. 424 мс.
Размер потока : 92,4 Мбайт (6%)

Скриншот с названием постановки

Скриншоты




Показать сообщения:    

Текущее время: 07-Дек 13:38

Часовой пояс: UTC + 3


Вы не можете начинать темы
Вы не можете отвечать на сообщения
Вы не можете редактировать свои сообщения
Вы не можете удалять свои сообщения
Вы не можете голосовать в опросах
Вы не можете прикреплять файлы к сообщениям
Вы не можете скачивать файлы