Этот фантастический мир. Выпуск 10. Знак саламандры (Тамара Павлюченко) [1984, СССР, фантастика, телеспектакль, DVB]


 

[Цитировать]

Этот фантастический мир. Выпуск 10. Знак саламандры
Страна: СССР
Жанр: фантастика, телеспектакль
Год выпуска: 1984
Продолжительность: 01:07:27
Режиссёр: Тамара Павлюченко
В ролях:
Леонид Каюров — Гай Монтэг, пожарный
Юрий Яковлев — брандмейстер Битти
Юрий Богатырёв — полковник Ролинг
Ольга Гобзева — Эдит, жена Ролинга
Ян Хвилер — Рони, сын Ролинга
Лев Иванов — профессор Фред Клемент
Вацлав Дворжецкий — Греджер
Ирина Корытникова — девушка в лесу
Игорь Золотовицкий — пожарный
Описание: Спектакль создан на основе следующих произведений: Рей Брэдбери «451° по Фаренгейту» и Э. Лудвит «Маленький преступник», связанных похожей исходной ситуацией: чтобы облегчить управляемость страной людям запрещено читать, информацию можно получить только из непечатных средств массовой пропаганды и на слух от начальника. Но среди людей, в том числе на самом верху, всегда найдётся «паршивая овца».
Доп. информация:
Запись со спутника Eutelsat 36A/B, телеканал "Ноcтальгия".
Семпл: http://multi-up.com/1054232
Релиз:
Качество видео: DVB
Формат видео: MPEG-PS
Видео: MPEG-2, 720x576i, 25.000 fps, 2881 kbps
Аудио: Русский (MPEG Audio 2.0, 48 kHz, 192 kbps)

MediaInfo

Общее
Полное имя : O:\ЭФМ_выпуск_10_Знак саламандры_1984_DVB.mpg
Формат : MPEG-PS
Размер файла : 1,48 Гбайт
Продолжительность : 1 ч. 7 м.
Режим общего битрейта : Переменный
Общий поток : 3135 Кбит/сек
Видео
Идентификатор : 224 (0xE0)
Формат : MPEG Video
Версия формата : Version 2
Профиль формата : Main@Main
Параметр BVOP формата : Да
Параметр матрицы формата : Выборочная
Параметр GOP формата : M=3, N=36
Format_Settings_PictureStructure : Frame
Продолжительность : 1 ч. 7 м.
Вид битрейта : Переменный
Битрейт : 2881 Кбит/сек
Максимальный битрейт : 15,0 Мбит/сек
Ширина : 720 пикселей
Высота : 576 пикселей
Соотношение сторон : 4:3
Частота кадров : 25,000 кадров/сек
Стандарт вещания : PAL
Цветовое пространство : YUV
Субдискретизация насыщенности : 4:2:0
Битовая глубина : 8 бит
Тип развёртки : Чересстрочная
Порядок развёртки : Верхнее поле первое
Метод сжатия : С потерями
Бит/(Пиксели*Кадры) : 0.278
Временной код первого кадра : 00:00:02:00
Оригинал временного кода : Group of pictures header
Размер потока : 1,36 Гбайт (92%)
Аудио
Идентификатор : 192 (0xC0)
Формат : MPEG Audio
Версия формата : Version 1
Профиль формата : Layer 2
Продолжительность : 1 ч. 7 м.
Вид битрейта : Постоянный
Битрейт : 192 Кбит/сек
Каналы : 2 канала
Частота : 48,0 КГц
Метод сжатия : С потерями
Задержка видео : -71 мс.
Размер потока : 92,6 Мбайт (6%)

Скриншот с названием постановки

Скриншоты




Показать сообщения:    

Текущее время: 05-Дек 03:29

Часовой пояс: UTC + 3


Вы не можете начинать темы
Вы не можете отвечать на сообщения
Вы не можете редактировать свои сообщения
Вы не можете удалять свои сообщения
Вы не можете голосовать в опросах
Вы не можете прикреплять файлы к сообщениям
Вы не можете скачивать файлы