Этот фантастический мир. Выпуск 7 (Виктор Спиридонов) [1982, СССР, фантастика, телеспектакль, DVB]


 

[Цитировать]

Этот фантастический мир. Выпуск 7
Страна: СССР
Жанр: фантастика, телеспектакль
Год выпуска: 1982
Продолжительность: 00:57:09
Режиссёр: Виктор Спиридонов
В ролях:
Андрей Голиков — командир
Галикс Колчицкий — профессор
Виктор Фокин — навигатор
Иннокентий Смоктуновский — капитан
Александр Парра — лейтенант Гарольд
Леонид Ярмольник — мичман «Малыш»
Михаил Глузский — Анатолий Николаевич
Александр Абдулов — пришелец, актёр
Виктор Шуляковский — Володя
Гарри Дунц — Георгий Иванович
Описание: Экипаж земного космического корабля попадает в далёкой галактике на планету, очень напоминающую родной мир. Космонавты думают о том, как передать информацию о своей находке на Землю. При этом они смотрят кассеты с записями. На одной из них сюжет из рассказа Артура Порджеса (англ.) «Ценный товар» (экипаж космического корабля стоит перед дилеммой — убить крайне дорогостоящего обитателя галактики или вступить с ним в контакт). На другой — экранизация рассказа Олега Лукьянова «Принцип неопределённости».
Доп. информация:
Запись со спутника Eutelsat 36A/B, телеканал "Ноcтальгия".
Семпл: http://multi-up.com/1054230
Релиз:
Качество видео: DVB
Формат видео: MPEG-PS
Видео: MPEG-2, 720x576i, 25.000 fps, 2658 kbps
Аудио: Русский (MPEG Audio 2.0, 48 kHz, 192 kbps)

MediaInfo

Общее
Полное имя : O:\ЭФМ_выпуск_7_1982_DVB.mpg
Формат : MPEG-PS
Размер файла : 1,16 Гбайт
Продолжительность : 57 м.
Режим общего битрейта : Переменный
Общий поток : 2907 Кбит/сек
Видео
Идентификатор : 224 (0xE0)
Формат : MPEG Video
Версия формата : Version 2
Профиль формата : Main@Main
Параметр BVOP формата : Да
Параметр матрицы формата : Выборочная
Параметр GOP формата : Variable
Format_Settings_PictureStructure : Frame
Продолжительность : 57 м.
Вид битрейта : Переменный
Битрейт : 2658 Кбит/сек
Максимальный битрейт : 15,0 Мбит/сек
Ширина : 720 пикселей
Высота : 576 пикселей
Соотношение сторон : 4:3
Частота кадров : 25,000 кадров/сек
Стандарт вещания : PAL
Цветовое пространство : YUV
Субдискретизация насыщенности : 4:2:0
Битовая глубина : 8 бит
Тип развёртки : Чересстрочная
Порядок развёртки : Верхнее поле первое
Метод сжатия : С потерями
Бит/(Пиксели*Кадры) : 0.256
Временной код первого кадра : 00:00:01:00
Оригинал временного кода : Group of pictures header
Размер потока : 1,06 Гбайт (91%)
Аудио
Идентификатор : 192 (0xC0)
Формат : MPEG Audio
Версия формата : Version 1
Профиль формата : Layer 2
Продолжительность : 57 м.
Вид битрейта : Постоянный
Битрейт : 192 Кбит/сек
Каналы : 2 канала
Частота : 48,0 КГц
Метод сжатия : С потерями
Задержка видео : -207 мс.
Размер потока : 78,5 Мбайт (7%)

Скриншот с названием постановки

Скриншоты




Показать сообщения:    

Текущее время: 24-Янв 12:13

Часовой пояс: UTC + 3


Вы не можете начинать темы
Вы не можете отвечать на сообщения
Вы не можете редактировать свои сообщения
Вы не можете удалять свои сообщения
Вы не можете голосовать в опросах
Вы не можете прикреплять файлы к сообщениям
Вы не можете скачивать файлы