Этот фантастический мир. Выпуск 6 (Тамара Павлюченко) [1981, СССР, фантастика, телеспектакль, DVB]


 

[Цитировать]

Этот фантастический мир. Выпуск 6
Страна: СССР
Жанр: фантастика, телеспектакль
Год выпуска: 1981
Продолжительность: 01:11:22
Режиссёр: Тамара Павлюченко
В ролях:
Юрий Богатырёв — Сергей Павлович Никитин, палеонтолог
Елена Наумкина — Мириам Нургалиева, геолог
Вячеслав Езепов — Мартын Мартыныч
Нина Килимник — Маруся
Эдуард Марцевич — Мартин Нэгл
Евгений Евстигнеев — Кеннет Бэрк, профессор психологии
Александр Вокач — профессор
Леонид Губанов — Кейз
Сергей Колесников — Даннинг
Лев Золотухин — Ли, учёный
Вячеслав Жолобов — Норкросс, учёный
Роман Фертман — профессор
Иван Тарханов — профессор
Описание: В выпуске были инсценированы следующие произведения:
Иван Ефремов «Тень минувшего» — интересная идея о возможности существования естественных «фотоаппаратов», способных при определённых условиях запечатлеть древнюю жизнь на Земле.
Раймонд Джоунс (англ.) «Уровень шума» — молодого перспективного учёного вызывают и предоставляют великолепно оборудованную лабораторию (как он сказал: «вот так мне всегда представлялся Рай») и далее демонстрируют кадры, где некто изобрёл антигравитационную машину, но изобретатель разбился вместе с машиной при её испытаниях. Учёному предлагают проделать работу по восстановлению машины. Он соглашается, и через некоторое время предоставляет работающий аппарат. Тогда учёному открывают: тот фильм был искусно инсценирован, дабы убедить его в возможности решения абсолютно невозможной (с точки зрения традиционной науки) задачи.
Доп. информация:
Запись со спутника Eutelsat 36A/B, телеканал "Ноcтальгия".
Семпл: http://multi-up.com/1054221
Релиз:
Качество видео: DVB
Формат видео: MPEG-PS
Видео: MPEG-2, 720x576i, 25.000 fps, 4013 kbps
Аудио: Русский (MPEG Audio 2.0, 48 kHz, 192 kbps)

MediaInfo

Общее
Общее
Полное имя : O:\ЭФМ_выпуск_6_1981_DVB.mpg
Формат : MPEG-PS
Размер файла : 2,14 Гбайт
Продолжительность : 1 ч. 11 м.
Режим общего битрейта : Переменный
Общий поток : 4290 Кбит/сек
Видео
Идентификатор : 224 (0xE0)
Формат : MPEG Video
Версия формата : Version 2
Профиль формата : Main@Main
Параметр BVOP формата : Да
Параметр матрицы формата : Выборочная
Параметр GOP формата : M=3, N=36
Format_Settings_PictureStructure : Frame
Продолжительность : 1 ч. 11 м.
Вид битрейта : Переменный
Битрейт : 4013 Кбит/сек
Максимальный битрейт : 15,0 Мбит/сек
Ширина : 720 пикселей
Высота : 576 пикселей
Соотношение сторон : 4:3
Частота кадров : 25,000 кадров/сек
Стандарт вещания : PAL
Цветовое пространство : YUV
Субдискретизация насыщенности : 4:2:0
Битовая глубина : 8 бит
Тип развёртки : Чересстрочная
Порядок развёртки : Верхнее поле первое
Метод сжатия : С потерями
Бит/(Пиксели*Кадры) : 0.387
Временной код первого кадра : 00:00:02:00
Оригинал временного кода : Group of pictures header
Размер потока : 2,00 Гбайт (94%)
Аудио
Идентификатор : 192 (0xC0)
Формат : MPEG Audio
Версия формата : Version 1
Профиль формата : Layer 2
Продолжительность : 1 ч. 11 м.
Вид битрейта : Постоянный
Битрейт : 192 Кбит/сек
Каналы : 2 канала
Частота : 48,0 КГц
Метод сжатия : С потерями
Задержка видео : -1 с. 40 мс.
Размер потока : 98,0 Мбайт (4%)

Скриншот с названием постановки

Скриншоты




Показать сообщения:    

Текущее время: 08-Дек 01:19

Часовой пояс: UTC + 3


Вы не можете начинать темы
Вы не можете отвечать на сообщения
Вы не можете редактировать свои сообщения
Вы не можете удалять свои сообщения
Вы не можете голосовать в опросах
Вы не можете прикреплять файлы к сообщениям
Вы не можете скачивать файлы