Этот фантастический мир. Выпуск 5 (Тамара Павлюченко) [1981, СССР, фантастика, телеспектакль, DVB]


 

[Цитировать]

Этот фантастический мир. Выпуск 5
Страна: СССР
Жанр: фантастика, телеспектакль
Год выпуска: 1981
Продолжительность: 01:10:28
Режиссёр: Тамара Павлюченко
В ролях:
Виктор Сергачёв — Гость / Дубль
Андрей Попов — миллионер Генри Уильям Филд
Леонид Топчиев — профессор Боултон
Юрий Богатырёв — писатель Томас Вулф
Геннадий Кочкожаров — пришелец
Ирина Акулова — Катрин
Николай Озеров — играет самого себя
Рогволд Суховерко — инопланетный резидент
Ирина Юревич — девочка из библиотеки (нет в титрах)
Описание: В программе появляется новый соведующий — писатель-фантаст, в этом выпуске эта роль досталась Дмитрию Биленкину.
У Гостя появляется Дубль, его злое альтер-эго, автономно существующее на Земле. Они встречаются в гостинце «Союз». Дубль предлагает Гостю некий план существования без помех для друг друга — в разных временных измерениях. В качестве аргументов своей позиции он демонстрирует инопланетянину историю из рассказа Рэя Брэдбери «О скитаниях вечных и о Земле». Гость отказывается, и Дубль исчезает. Второй сюжет в выпуске взят из рассказа Кира Булычёва «Выбор»: инопланетянин отказывается возвращаться к своим и остаётся со своей любимой землянкой.
В рассказе «О скитаниях вечных и о Земле» люди далёкого будущего «вытаскивают» из прошлого находящихся при смерти гениев своего дела и продлевают им на некоторое время жизнь, чтобы те успели написать свою последнюю картину, роман и др. Затем возвращают их обратно в объятия смерти, поскольку нельзя нарушать пространственно-временной континуум.
Доп. информация:
Запись со спутника Eutelsat 36A/B, телеканал "Ноcтальгия".
Семпл: http://multi-up.com/1054210
Релиз:
Качество видео: DVB
Формат видео: MPEG-PS
Видео: MPEG-2, 720x576i, 25.000 fps, 4266 kbps
Аудио: Русский (MPEG Audio 2.0, 48 kHz, 192 kbps)

MediaInfo

Общее
Общее
Полное имя : O:\ЭФМ_выпуск_5_1981_DVB.mpg
Формат : MPEG-PS
Размер файла : 2,24 Гбайт
Продолжительность : 1 ч. 10 м.
Режим общего битрейта : Переменный
Общий поток : 4549 Кбит/сек
Видео
Идентификатор : 224 (0xE0)
Формат : MPEG Video
Версия формата : Version 2
Профиль формата : Main@Main
Параметр BVOP формата : Да
Параметр матрицы формата : Выборочная
Параметр GOP формата : Variable
Format_Settings_PictureStructure : Frame
Продолжительность : 1 ч. 10 м.
Вид битрейта : Переменный
Битрейт : 4266 Кбит/сек
Максимальный битрейт : 15,0 Мбит/сек
Ширина : 720 пикселей
Высота : 576 пикселей
Соотношение сторон : 4:3
Частота кадров : 25,000 кадров/сек
Стандарт вещания : PAL
Цветовое пространство : YUV
Субдискретизация насыщенности : 4:2:0
Битовая глубина : 8 бит
Тип развёртки : Чересстрочная
Порядок развёртки : Верхнее поле первое
Метод сжатия : С потерями
Бит/(Пиксели*Кадры) : 0.411
Временной код первого кадра : 00:00:02:00
Оригинал временного кода : Group of pictures header
Размер потока : 2,10 Гбайт (94%)
Аудио
Идентификатор : 192 (0xC0)
Формат : MPEG Audio
Версия формата : Version 1
Профиль формата : Layer 2
Продолжительность : 1 ч. 10 м.
Вид битрейта : Постоянный
Битрейт : 192 Кбит/сек
Каналы : 2 канала
Частота : 48,0 КГц
Метод сжатия : С потерями
Задержка видео : -88 мс.
Размер потока : 96,8 Мбайт (4%)

Скриншот с названием постановки

Скриншоты




Показать сообщения:    

Текущее время: 08-Дек 21:07

Часовой пояс: UTC + 3


Вы не можете начинать темы
Вы не можете отвечать на сообщения
Вы не можете редактировать свои сообщения
Вы не можете удалять свои сообщения
Вы не можете голосовать в опросах
Вы не можете прикреплять файлы к сообщениям
Вы не можете скачивать файлы