Этот фантастический мир. Выпуск 2 (Тамара Павлюченко) [1979, СССР, фантастика, телеспектакль, DVB]


 

[Цитировать]

Этот фантастический мир. Выпуск 2
Страна: СССР
Жанр: фантастика, телеспектакль
Год выпуска: 1979
Продолжительность: 00:55:45
Режиссёр: Тамара Павлюченко
В ролях:
Кирилл Агеев
Виктор Сергачев
Галикс (Георгий) Колчицкий
Николай Болотов
Иван Власов
Елена Кондратова
Наталья Вихрова
Сергей Колесников
Лев Иванов
Георгий Шевцов
Елена Добронравова
Вацлав Дворжецкий
Алексей Борзунов
Александр Дик
Александр Вокач
Владимир Земляникин
Георгий Богадист
Описание: Во втором выпуске популярного цикла "Этот фантастический мир" зрителям были представлены фрагменты произведений советских
и зарубежных фантастов: "Алло, Парнас!" (по рассказу Валентина Берестова),
"Янки при дворе короля Артура" (сокращенная версия книги Марка Твена),
"Маракотова бездна" Артура Конан Дойля и "Победитель невозможного" Евгения Велтистова.
Начиная с этого выпуска постоянным ведущим передачи стал космонавт Георгий Гречко.
Доп. информация:
Запись со спутника Eutelsat 36A/B, телеканал "Ноcтальгия".
Семпл: http://multi-up.com/1054204
Релиз:
Качество видео: DVB
Формат видео: MPEG-PS
Видео: MPEG-2, 720x576i, 25.000 fps, 4674 kbps
Аудио: Русский (MPEG Audio 2.0, 48 kHz, 192 kbps)

MediaInfo

Общее
Общее
Полное имя : O:\ЭФМ_выпуск_2_1979_DVB.mpg
Формат : MPEG-PS
Размер файла : 1,93 Гбайт
Продолжительность : 55 м.
Режим общего битрейта : Переменный
Общий поток : 4964 Кбит/сек
Видео
Идентификатор : 224 (0xE0)
Формат : MPEG Video
Версия формата : Version 2
Профиль формата : Main@Main
Параметр BVOP формата : Да
Параметр матрицы формата : Выборочная
Параметр GOP формата : Variable
Format_Settings_PictureStructure : Frame
Продолжительность : 55 м.
Вид битрейта : Переменный
Битрейт : 4674 Кбит/сек
Максимальный битрейт : 15,0 Мбит/сек
Ширина : 720 пикселей
Высота : 576 пикселей
Соотношение сторон : 4:3
Частота кадров : 25,000 кадров/сек
Стандарт вещания : PAL
Цветовое пространство : YUV
Субдискретизация насыщенности : 4:2:0
Битовая глубина : 8 бит
Тип развёртки : Чересстрочная
Порядок развёртки : Верхнее поле первое
Метод сжатия : С потерями
Бит/(Пиксели*Кадры) : 0.451
Временной код первого кадра : 00:00:01:00
Оригинал временного кода : Group of pictures header
Размер потока : 1,82 Гбайт (94%)
Аудио
Идентификатор : 192 (0xC0)
Формат : MPEG Audio
Версия формата : Version 1
Профиль формата : Layer 2
Продолжительность : 55 м.
Вид битрейта : Постоянный
Битрейт : 192 Кбит/сек
Каналы : 2 канала
Частота : 48,0 КГц
Метод сжатия : С потерями
Задержка видео : -151 мс.
Размер потока : 76,6 Мбайт (4%)

Скриншот с названием постановки

Скриншоты




Показать сообщения:    

Текущее время: 07-Дек 17:26

Часовой пояс: UTC + 3


Вы не можете начинать темы
Вы не можете отвечать на сообщения
Вы не можете редактировать свои сообщения
Вы не можете удалять свои сообщения
Вы не можете голосовать в опросах
Вы не можете прикреплять файлы к сообщениям
Вы не можете скачивать файлы