Пока я жив, я с тобой (Людмила Тарасова) [1986, Белорусская ССР, Драма, DVB-AVC]


 

[Цитировать]

Пока я жив, я с тобой
Страна: Белорусская ССР
Жанр: Драма
Год выпуска: 1986
Продолжительность: 00:42:30
Перевод: Не требуется
Язык: Русский
Режиссёр: Людмила Тарасова
В ролях:
Люба - Светлана Деменчук
Лев - Вячеслав Павлють
Сын - Фома Воронецкий
Описание: Спектакль посвящён событиям Великой Отечественной Войны, судьбе молодого поколения, принявшему на себя удар тех событий, переоценке ценностей и взглядов в непростой ситуации.
Авторы сценария: Светлана Винник, Людмила Тарасова
Оператор-постановщик: Валерий Баранов
Художник-постановщик: Олег Грубин
Звукорежиссёр: Евгения Аверина
Благодарность: исходник для данной раздачи, записан с цифрового наземного канала, т.е. DVB-Т, любезно предоставлен PavelDAS.
За что ему большое спасибо!
Запись потока *.ts с наземного цифрового телеканала "Беларусь 3", ремукс в *.mkv программой VideoReDo.
Помощь с описанием: Bartimeyse
Релиз:
Мои раздачи:

Мои раздачи

Все
http://RUtracker.org/forum/tracker.php?rid=9778909
http://BY.rutracker.org/forum/tracker.php?rid=9778909
http://UA.rutracker.org/forum/tracker.php?rid=9778909
Избранные:
1) Я - гражданин Республики Беларусь. Архитектурные и художественные шедевры Беларуси [2008, RUS]
http://rutracker.org/forum/viewtopic.php?t=3516744
2) Государственная политика [Документальный цикл, TVRip, 2010]
http://rutracker.org/forum/viewtopic.php?t=3321565
3) Беларусь. Взгляд извне [2005, документальный сериал, TVRip]
http://rutracker.org/forum/viewtopic.php?t=3543820
4) Трилогия: Белая Русь, Чарующая Беларусь, Путешествие из Беларуси в Россию [2010-2011 г., Документальный, DVD5]
http://rutracker.org/forum/viewtopic.php?t=3442053
5) Правда о западной «демократии» и белорусском «тоталитаризме» [Беларусь 2011, Документальное расследование]
http://rutracker.org/forum/viewtopic.php?t=3523672
6) Задорнов в Беларуси. Беларусь - это значительно улучшенный Советский Союз [2010-2011 г., Интервью, TVRip]
http://rutracker.org/forum/viewtopic.php?t=3512134
7) [Журнал] Экономика Беларуси (16 номеров) [2007-2010, PDF, RUS]
http://rutracker.org/forum/viewtopic.php?t=3309120
8) Армия - Журнал Вооруженных сил республики Беларусь. (81 номер) [1996-2010, PDF, RUS]
http://rutracker.org/forum/viewtopic.php?t=3277264
9) Страна Моя, Беларусь! Заставка телеканал СТВ Минск. Белоруссия, Мир, Несвиж и др. zweizwei [2010, рекламный ролик, заставка, HD-Video]
http://rutracker.org/forum/viewtopic.php?t=3480687
10) Радзивиллы Несвижские владения Костел Божьего тела [2011 г., хроникально-документальный, TVRip]
http://rutracker.org/forum/viewtopic.php?t=3410980
11) Полёты на воздушном шаре. Новогрудок. Беларусь. zweizwei / Belarus Novogrudok [2010, HD-Video]
http://rutracker.org/forum/viewtopic.php?t=3380821
12) Полёты на воздушном шаре / Беларусь, Белоруссия, Гродно, Святск. zweizwei [2009, HD-Video]
http://rutracker.org/forum/viewtopic.php?t=3380756
13) Вид Гродно с высоты полета (Беларусь)/Выгляд Гродна з вышыні палёту паветранага шара [222]
http://rutracker.org/forum/viewtopic.php?t=3369388
14) Анархия Прямое действие. Беларусь [2011, документальный фильм, TVRip]
http://rutracker.org/forum/viewtopic.php?t=3485756
15) Психология девиации (АТН, Беларусь ТВ) [2010, Информационно-аналитические и общественно-политическиепередачи, TVRip]
http://rutracker.org/forum/viewtopic.php?t=3542424
16) Боль моя - Чернобыль (Беларусь, Коллектив Беларусь ТВ) [2011, Документлный, TVRip]
http://rutracker.org/forum/viewtopic.php?t=3546253
17) Попов хутор и его обитатели Русс ТВ [2011, Документальный, DVD5]
http://rutracker.org/forum/viewtopic.php?t=3514286
и сотни других...
Семпл: http://rusfolder.com/43812419
Качество видео: DVB
Формат видео: MKV
Видео: AVC (H264), 720x576 (4:3), 25 fps, 2 107 Kbps
Аудио: MP2, 256 kbps, 2 channels, 48 kHz

MediaInfo

General
Unique ID : 337400497661156427032286396116719578113 (0xFDD4F8E01CABC1318C81B0C6D77F2C01)
Complete name : D:\Телеспектакли\Пока я жив, я с тобой (1986)\Пока я жив, я с тобой (1986).mkv
Format : Matroska
Format version : Version 2
File size : 733 MiB
Duration : 42mn 29s
Overall bit rate : 2 411 Kbps
Writing application : Lavf52.64.2
Writing library : Lavf52.64.2
Video
ID : 1
Format : AVC
Format/Info : Advanced Video Codec
Format profile : Main@L3.0
Format settings, CABAC : Yes
Format settings, ReFrames : 4 frames
Format settings, GOP : M=4, N=24
Codec ID : V_MPEG4/ISO/AVC
Duration : 42mn 29s
Bit rate : 2 107 Kbps
Width : 720 pixels
Height : 576 pixels
Display aspect ratio : 4:3
Original display aspect ratio : 4:3
Frame rate mode : Constant
Frame rate : 25.000 fps
Standard : PAL
Color space : YUV
Chroma subsampling : 4:2:0
Bit depth : 8 bits
Scan type : MBAFF
Scan order : Top Field First
Bits/(Pixel*Frame) : 0.203
Stream size : 640 MiB (87%)
Default : Yes
Forced : No
Color primaries : BT.601 PAL
Transfer characteristics : BT.470 System B, BT.470 System G
Matrix coefficients : BT.601
Color range : Limited
Audio
ID : 2
Format : MPEG Audio
Format version : Version 1
Format profile : Layer 2
Codec ID : A_MPEG/L2
Codec ID/Hint : MP2
Duration : 42mn 29s
Bit rate mode : Constant
Bit rate : 256 Kbps
Channel(s) : 2 channels
Sampling rate : 48.0 KHz
Compression mode : Lossy
Stream size : 77.8 MiB (11%)
Language : English
Default : Yes
Forced : No



Показать сообщения:    

Текущее время: 10-Дек 00:23

Часовой пояс: UTC + 3


Вы не можете начинать темы
Вы не можете отвечать на сообщения
Вы не можете редактировать свои сообщения
Вы не можете удалять свои сообщения
Вы не можете голосовать в опросах
Вы не можете прикреплять файлы к сообщениям
Вы не можете скачивать файлы