Трёхгрошовая опера / Трохграшовая опера (Витаутас Григалюнас) [1997, Республика Беларусь, Драма, мюзикл, DVB-AVC] Альтернативный театр, Минск


 

[Цитировать]

Трёхгрошовая опера / Трохграшовая опера
Название театра: Альтернативный театр, Минск
Страна: Республика Беларусь
Жанр: Драма, мюзикл
Год выпуска: 1997
Продолжительность: 00:54:27
Перевод: Не требуется
Интертитры: Белорусский
Язык: Русский
Режиссёр: Витаутас Григалюнас
В ролях:
Макхит (по кличке Мэкки-Нож) — Игорь Забара
Джонатан Джереми Пичем (владелец фирмы «Друг нищего») — Виктор Васильев
Селия Пичем (его жена) — Майя Мартыненко
Полли Пичем (его дочь) — Анна Легчилова
Браун (шеф лондонской полиции) — Артур Федорович
Люси (его дочь) — Светлана Никифорова
Смит — Евгений Журавкин
Филч — Артур Шуляк
Дженни-Малина — Ольга Лужковская
Маттиас — Анатолий Голуб
Описание: Спектакль по одноименной пьесе Бертольта Брехта.
Мэкки, князь лондонского преступного мира, встречает Полли Пичем, дочь короля нищих, и сразу же решает жениться. Свадьба проходит в заброшенном складе, отрезанном от мира при помощи подъемного моста и до отказа набитом подарками, украденными бандой Мэкки для молодожёнов. Браун, начальник полиции, друг и соучастник Мэкки, также приглашён на свадьбу. Однако сам Пичем крайне недоволен союзом своей дочери с Мэкки. Он приходит к Брауну и требует, чтобы Мэкки упрятали за решётку; в противном случае на грядущих празднествах по случаю коронации он выпустит на улицы орды попрошаек, калек и увечных — настоящих или ненастоящих, но поголовно преданных своему хозяину...
Доп. информация:
Композитор — Борис Серёгин
Аранжировка — Андрей Жуков, Константин Горячий
Художник — Марина Дударева
Костюмы — Алёна Игруша
Телеверсию подготовили:
Режиссёр — Надежда Горкунова
Оператор-постановщик — Геннадий Солодов
Операторы — Владимир Левицкий, Дмитрий Третьяков
Звукорежиссёр — Татьяна Рубцова
Благодарность: исходник для данной раздачи, записан с цифрового наземного канала, т.е. DVB-Т,
Запись потока *.ts с наземного цифрового телеканала "Беларусь 3", ремукс в *.mkv программой VideoReDo.
Качество видео: DVB
Формат видео: MKV
Видео: AVC (H264), 720x576 (4:3), 25 fps, 2 109 Kbps
Аудио: MP2, 256 kbps, 2 channels, 48 kHz
Семпл: http://rusfolder.com/43783525

MediaInfo

GeneralUnique ID : 1595353925454420929659368479666903480 (0x133410577F043E12D8BB785450699B8)Complete name : D:\Новая земля 2\Телеспектакли\Трёхгрошовая опера (1997)\Трёхгрошовая опера (1997).mkvFormat : MatroskaFormat version : Version 2File size : 940 MiBDuration : 54mn 27sOverall bit rate : 2 413 KbpsWriting application : Lavf52.64.2Writing library : Lavf52.64.2
VideoID : 1Format : AVCFormat/Info : Advanced Video CodecFormat profile : Main@L3.0Format settings, CABAC : YesFormat settings, ReFrames : 4 framesFormat settings, GOP : M=4, N=24Codec ID : V_MPEG4/ISO/AVCDuration : 54mn 27sBit rate : 2 109 KbpsWidth : 720 pixelsHeight : 576 pixelsDisplay aspect ratio : 4:3Original display aspect ratio : 4:3Frame rate mode : ConstantFrame rate : 25.000 fpsStandard : PALColor space : YUVChroma subsampling : 4:2:0Bit depth : 8 bitsScan type : MBAFFScan order : Top Field FirstBits/(Pixel*Frame) : 0.203Stream size : 821 MiB (87%)Default : YesForced : NoColor primaries : BT.601 PALTransfer characteristics : BT.470 System B, BT.470 System GMatrix coefficients : BT.601Color range : Limited
AudioID : 2Format : MPEG AudioFormat version : Version 1Format profile : Layer 2Codec ID : A_MPEG/L2Codec ID/Hint : MP2Duration : 54mn 27sBit rate mode : ConstantBit rate : 256 KbpsChannel(s) : 2 channelsSampling rate : 48.0 KHzCompression mode : LossyStream size : 99.7 MiB (11%)Language : EnglishDefault : YesForced : No



Показать сообщения:    

Текущее время: 08-Дек 17:24

Часовой пояс: UTC + 3


Вы не можете начинать темы
Вы не можете отвечать на сообщения
Вы не можете редактировать свои сообщения
Вы не можете удалять свои сообщения
Вы не можете голосовать в опросах
Вы не можете прикреплять файлы к сообщениям
Вы не можете скачивать файлы