Медведь / Мядзведзь (Витаутас Григалюнас) [199Х, Республика Беларусь, Комедия, DVB-AVC] Альтернативный театр, Минск


 

[Цитировать]

Медведь / Мядзведзь
Название театра: Альтернативный театр, Минск
Страна: Республика Беларусь
Жанр: Комедия
Год выпуска: 199Х
Продолжительность: 00:57:04
Перевод: Не требуется
Интертитры: Белорусский
Язык: Русский
Режиссёр: Витаутас Григалюнас
В ролях:
Елена Ивановна Попова - Светлана Никифорова
Григорий Степанович Смирнов - Артур Шуляк
Лука - заслуженный артист России, Олег Корчиков
Описание:
«Медведь» — шутка в одном действии Антона Павловича Чехова. Завершена в феврале 1888 года. Посвящена Н. Н. Соловцову.
К помещице Поповой Елене Ивановне, тяжело скорбящей о смерти супруга, неожиданно приезжает хозяин соседнего поместья — отставной поручик артиллерии Григорий Степанович Смирнов. Он отчаянно нуждается в деньгах и требует немедленно вернуть долг покойного мужа Елены Ивановны. Помещица в связи с отъездом приказчика по делам, просит подождать пару дней. Смирнову необходимо заплатить проценты по закладной и он отказывается покидать дом помещицы пока не получит долг, а получив отказ — затевает ссору и вызывает вдову на дуэль. Попова принимает вызов, приносит пистолеты и просит Смирнова научить её стрелять. Действия Елены Ивановны приводят помещика в восторг, мало того, он в неё влюбляется и тут же признается ей в любви. Попова отвечает ему взаимностью.
Благодарность: исходник для данной раздачи, записан с цифрового наземного канала, т.е. DVB-Т, любезно предоставлен PavelDAS.
За что ему большое спасибо!
Запись потока *.ts с наземного цифрового телеканала "Беларусь 3", ремукс в *.mkv программой VideoReDo.
Семпл: http://rusfolder.com/43774304
Качество видео: DVB
Формат видео: MKV
Видео: AVC (H264), 720x576 (4:3), 25 fps, 2 098 Kbps
Аудио: MP2, 256 kbps, 2 channels, 48 kHz

MediaInfo

General
Unique ID : 48770356996649346309978408324045666472 (0x24B0D43F7E463ED0153A59B090FAF8A8)
Complete name : D:\Новая земля 2\Телеспектакли\Мядзведзь (199x)\Мядзведзь (199x).mkv
Format : Matroska
Format version : Version 2
File size : 985 MiB
Duration : 57mn 3s
Overall bit rate : 2 412 Kbps
Writing application : Lavf52.64.2
Writing library : Lavf52.64.2
Video
ID : 1
Format : AVC
Format/Info : Advanced Video Codec
Format profile : Main@L3.0
Format settings, CABAC : Yes
Format settings, ReFrames : 4 frames
Format settings, GOP : M=4, N=24
Codec ID : V_MPEG4/ISO/AVC
Duration : 57mn 3s
Bit rate : 2 108 Kbps
Width : 720 pixels
Height : 576 pixels
Display aspect ratio : 4:3
Original display aspect rat : 4:3
Frame rate mode : Constant
Frame rate : 25.000 fps
Standard : PAL
Color space : YUV
Chroma subsampling : 4:2:0
Bit depth : 8 bits
Scan type : MBAFF
Scan order : Top Field First
Bits/(Pixel*Frame) : 0.203
Stream size : 860 MiB (87%)
Default : Yes
Forced : No
Color primaries : BT.601 PAL
Transfer characteristics : BT.470 System B, BT.470 System G
Matrix coefficients : BT.601
Color range : Limited
Audio
ID : 2
Format : MPEG Audio
Format version : Version 1
Format profile : Layer 2
Codec ID : A_MPEG/L2
Codec ID/Hint : MP2
Duration : 57mn 3s
Bit rate mode : Constant
Bit rate : 256 Kbps
Channel(s) : 2 channels
Sampling rate : 48.0 KHz
Compression mode : Lossy
Stream size : 104 MiB (11%)
Language : English
Default : Yes
Forced : No



Показать сообщения:    

Текущее время: 10-Дек 19:41

Часовой пояс: UTC + 3


Вы не можете начинать темы
Вы не можете отвечать на сообщения
Вы не можете редактировать свои сообщения
Вы не можете удалять свои сообщения
Вы не можете голосовать в опросах
Вы не можете прикреплять файлы к сообщениям
Вы не можете скачивать файлы