Разновидность контактов (Валерий Обогрелов) [1987 г., фантастика, экранизация, телеспектакль, SATRip]


 

[Цитировать]

Разновидность контактов Год выпуска: 1987.
Жанр: фантастика, экранизация, телеспектакль.
Продолжительность: 00:19:24.
Режиссер: Валерий Обогрелов.
В ролях: заслуженный артист РСФСР Эрнст Романов, Анастасия Никольская.
Описание:
Телеспектакль по мотивам фантастического рассказа Кира Булычева "Можно попросить Нину".
История о том, как телефонный звонок из будущего, который раздался в голодном военном Ленинграде 1942 года, помог девочке Нине не умереть с голода.

Дополнительная информация:
Страна: СССР .
Выпущено: © Молодежная редакция ленинградского телевидения.
Автор: Кир Булычев.
Операторы: Борис Деденёв, Анатолий Ильин.

Релиз

Качество: SATRip
Формат: AVI
Видео: 640x480 (1.33:1), 25 fps, XviD MPEG-4 ~1679 kbps avg, 0.22 bit/pixel
Аудио: 48 kHz, MPEG Layer 3, 2 ch, ~128.00 kbps avg

Отчет MI

Общее
Полное имя : Raznovidnost.kontaktov.1987.XviD.TVRip.fenixclub.avi
Format : AVI
Format/Info : Audio Video Interleave
File size : 252 MiB
Duration : 19mn 24s
Overall bit rate : 1 817 Kbps
Writing application : VirtualDubModRus 1.5.10.2 (build 2542/release)
Writing library : VirtualDubMod build 2542/release
Video
ID : 0
Format : MPEG-4 Visual
Format profile : Advanced Simple@L5
Format settings, BVOP : 2
Format settings, QPel : No
Format settings, GMC : No warppoints
Format settings, Matrix : Default (H.263)
Muxing mode : Packed bitstream
Codec ID : XVID
Codec ID/Hint : XviD
Duration : 19mn 24s
Bit rate : 1 679 Kbps
Width : 640 pixels
Height : 480 pixels
Display aspect ratio : 4:3
Frame rate : 25.000 fps
Original frame rate : 24.000 fps
Color space : YUV
Chroma subsampling : 4:2:0
Bit depth : 8 bits
Scan type : Progressive
Compression mode : Lossy
Bits/(Pixel*Frame) : 0.219
Stream size : 233 MiB (92%)
Writing library : XviD 73
Audio
ID : 1
Format : MPEG Audio
Format version : Version 1
Format profile : Layer 3
Mode : Joint stereo
Mode extension : MS Stereo
Codec ID : 55
Codec ID/Hint : MP3
Duration : 19mn 24s
Bit rate mode : Constant
Bit rate : 128 Kbps
Channel(s) : 2 channels
Sampling rate : 48.0 KHz
Compression mode : Lossy
Stream size : 17.8 MiB (7%)
Alignment : Aligned on interleaves
Interleave, duration : 40 ms (1.00 video frame)
Interleave, preload duratio : 504 ms.

Скриншоты

Альтернативный хост




Показать сообщения:    

Текущее время: 03-Дек 01:22

Часовой пояс: UTC + 3


Вы не можете начинать темы
Вы не можете отвечать на сообщения
Вы не можете редактировать свои сообщения
Вы не можете удалять свои сообщения
Вы не можете голосовать в опросах
Вы не можете прикреплять файлы к сообщениям
Вы не можете скачивать файлы