Шерлок Холмс Странный случай Элис Фолкнер / Sherlock Holmes The Strange Case of Alice Faulkner (Питер Х. Хант / Peter Н. Hunt.) [1981, Великобритания, Детектив, VHSRip] Willamstown Theatre Festival, Eng + Rus Subs (karlivanovich)


 

[Цитировать]

Шерлок Холмс Странный случай Элис Фолкнер / Sherlock Holmes The Strange Case of Alice Faulkner
Название театра: Willamstown Theatre Festival
Страна: Великобритания
Жанр: Детектив
Год выпуска: 1981
Продолжительность: 02:01:02
Перевод: Субтитры, перевод с английского karlivanovich
Оригинальная аудиодорожка: английский
Режиссёр: Питер Х. Хант / Peter Н. Hunt
В ролях:
Крейген -- ТОМ АТКИНС,
Сидней Принс -- ЛУИС БИЧНЕР
Формен -- РОБЕРТ БРОЛИ,
граф фон Штольберг -- ЮСЕФ БУЛОШ
Мадж Лереби -- СЬЮЗЕН КЛАРК,
Джеймс Лереби -- СТИВЕН КОЛЛИНЗ
Парсонс -- УИЛЬЯМ ДЬЮЭЛЛ,
Элис Фолкнер -- ЛОРИ КЕННЕДИ
Шерлок Холмс -- ФРЕНК ЛАНГЕЛЛА,
Лири -- ФРЕНК МАРАДЕН
профессор Мориарти -- ДЖОРДЖ МОРФОГЕН,
Джон -- МАЙКЛ КУИЛЛ
Басик -- ДУАЙТ ШУЛЬЦ,
Билли -- КРИСТИАН СЛЕЙТЕР
МакТаг -- РАЛЬФ СТРЕЙТ,
сэр Эдвард -- ДЖОН ТИЛИНГЕР
Тереза -- БАРБЕТТ ТВИД,
доктор Ватсон -- РИЧАРД ВУДС
Описание: Спектакль по пьесе Уильяма Джиллета "ШЕРЛОК ХОЛМС"
Релиз группы videodemons
Редакция субтитров $Shorox
Семпл
Качество видео: VHSRip
Формат видео: AVI
Видео: XviD, 640x480, 4:3, 29.970 fps, 625 Kbps
Аудио: Английский, MP3, 192 Kbps, 2 channels, 48.0 KHz

MediaInfo

General
Complete name The Strange Case of Alice Faulkner\Sherlock Holmes The Strange Case of Alice Faulkner (TV) (1981).avi
Format : AVI
Format/Info : Audio Video Interleave
File size : 699 MiB
Duration : 2h 1mn
Overall bit rate mode : Variable
Overall bit rate : 807 Kbps
Writing application : VirtualDubMod 1.5.4.1 (build 2178/release)
Writing library : VirtualDubMod build 2178/release
Video
ID : 0
Format : MPEG-4 Visual
Format profile : Advanced Simple@L5
Format settings, BVOP : 1
Format settings, QPel : No
Format settings, GMC : No warppoints
Format settings, Matrix : Custom
Codec ID : XVID
Codec ID/Hint : XviD
Duration : 2h 1mn
Bit rate : 625 Kbps
Width : 640 pixels
Height : 480 pixels
Display aspect ratio : 4:3
Frame rate : 29.970 fps
Color space : YUV
Chroma subsampling : 4:2:0
Bit depth : 8 bits
Scan type : Progressive
Compression mode : Lossy
Bits/(Pixel*Frame) : 0.068
Stream size : 541 MiB (77%)
Writing library : XviD 1.2.0.dev47 (UTC 2006-11-01)
Audio
ID : 1
Format : MPEG Audio
Format version : Version 1
Format profile : Layer 3
Mode : Joint stereo
Mode extension : MS Stereo
Codec ID : 55
Codec ID/Hint : MP3
Duration : 2h 1mn
Bit rate mode : Variable
Bit rate : 168 Kbps
Nominal bit rate : 192 Kbps
Channel(s) : 2 channels
Sampling rate : 48.0 KHz
Compression mode : Lossy
Stream size : 146 MiB (21%)
Alignment : Aligned on interleaves
Interleave, duration : 24 ms (0.72 video frame)
Interleave, preload duration : 474 ms
Writing library : LAME3.97
Encoding settings : -m j -V 4 -q 2 -lowpass 18.6 --abr 192

Скриншот с названием постановки

Скриншоты








Пример субтитров

1
00:00:26,091 --> 00:00:30,290
в главной роли
ФРЕНК ЛАНГЕЛЛА
2
00:00:32,881 --> 00:00:36,680
спектакль театрального
фестиваля в Уильямстауне
3
00:00:38,409 --> 00:00:42,273
"ШЕРЛОК ХОЛМС"
по пьесе УИЛЬЯМА ДЖИЛЛЕТА
4
00:00:44,296 --> 00:00:47,249
перевод karlivanovich
5
00:00:47,468 --> 00:00:50,120
редакция субтитров $Shorox
6
00:00:51,574 --> 00:00:54,596
АКТ ПЕРВЫЙ.
"ЛОНДОН, 1891".
7
00:00:55,778 --> 00:01:01,992
Кто не слыхал о моем дорогом друге Шерлоке
Холмсе и его поразительных расследованиях.
8
00:01:02,216 --> 00:01:04,677
Сколько лет прошло, но
в памяти живы события,
9
00:01:04,842 --> 00:01:07,601
о которых сейчас пришло
время начать мой рассказ.
10
00:01:07,772 --> 00:01:11,414
Я говорю о странном
деле Мисс Элис Фолкнер.
11
00:01:11,640 --> 00:01:16,198
О деле, до настоящего времени
не получившем огласки.
12
00:01:16,470 --> 00:01:23,003
Мисс Элис Фолкнер, очаровательная молодая
леди, проживала одна на континенте.
13
00:01:23,270 --> 00:01:27,292
Ее сестра умерла от отчаяния после
того, как ее бросил возлюбленный,
14
00:01:27,428 --> 00:01:30,901
молодой человек королевской
крови, ради женитьбы на другой.
15
00:01:31,123 --> 00:01:36,327
У Мисс Фолкнер от сестры остались
письма и кулон с королевским гербом.
16
00:01:36,601 --> 00:01:40,840
И она планировала воспользоваться ими,
чтобы отомстить за смерть сестры.
17
00:01:41,085 --> 00:01:46,011
Затем она встретила Джима и Медж Лереби,
также известных под фамилией Четвуд,
18
00:01:46,334 --> 00:01:49,551
отвратительных респектабельного
вида мошенников,
19
00:01:49,723 --> 00:01:52,172
которые, прознав о
печальной судьбе
20
00:01:52,480 --> 00:01:56,584
сестры Мисс Фолкнер и чувствуя
запах серьезной наживы,
21
00:01:56,755 --> 00:02:00,009
заманили доверчивую
девушку в свой дом
22
00:02:00,306 --> 00:02:06,440
на окраине Лондона, где фактически
поместили ее под домашний арест.
23
00:02:06,904 --> 00:02:10,388
А бесценные письма положили
в сейф письменного стола.
24
00:02:10,582 --> 00:02:13,233
Но Мисс Фолкнер, будучи
девушкой с характером,
25
00:02:13,335 --> 00:02:16,571
в один прекрасный день вскрыла сейф
и изменила кодовую комбинацию.



Показать сообщения:    

Текущее время: 06-Дек 22:57

Часовой пояс: UTC + 3


Вы не можете начинать темы
Вы не можете отвечать на сообщения
Вы не можете редактировать свои сообщения
Вы не можете удалять свои сообщения
Вы не можете голосовать в опросах
Вы не можете прикреплять файлы к сообщениям
Вы не можете скачивать файлы