Расследует бригада Бычкова (Юрий Маляцкий) [1985 г., детектив, экранизация, телеспектакль, SATRip]


 

[Цитировать]

Расследует бригада Бычкова Год выпуска: 1985.
Жанр: детектив, экранизация, телеспектакль.
Продолжительность: 01:57:13.
Режиссер-постановщик: Юрий Маляцкий.
Действующие лица и исполнители:
Бычков - Виктор Михайлов,
Коптельцев - народный артист РСФСР Леонид Дьячков,
Юрский - заслуженный артист РСФСР Ефим Каменецкий,
Васильев - Виктор Бычков,
Кренев - заслуженный артист РСФСР Петр Шелохонов,
Метистов - заслуженный артист РСФСР Александр Михайличенко,
Полетайка - Владимир Осипчук,
Хельга - Ирина Мазуркевич,
Тихонов - заслуженный артист РСФСР Николай Лавров,
Хряков - заслуженный артист РСФСР Иван Краско,
Филимонова - Светлана Карпинская,
Кононов - Евгений Баранов,
Журавлев - Виктор Смирнов,
Егоров - Анатолий Петров,
Салов - Вадим Бочанов.
Описание:
Телеспектакль по сценарию Юзефа Принцева входит в серию "Дела и люди ленинградской милиции". События спектакля начинаются в 1936 году, а заканчиваются в дни блокады, зимой 1942-го. В основе сценария - факты из практики работы органов милиции Ленинграда. Реальные люди являются прототипами героев. Это рассказ о настойчивом, но не всегда заметном сражении за нравственные устои личности, за будущее молодых людей.
Дополнительная информация:
Страна: СССР .
Выпущено: © Ленинградское телевидение.
Автор сценария: Юзеф Принцев.
Композитор: Н. Карш.
Художник: Вера Зелинская.
Операторы: Андрей Гусак, Вадим Берзин, Ю. Зуев, Максим Тарасюгин.

Релиз

Качество: SATRip
Формат: AVI
Видео: 640x480 (1.33:1), 25 fps, XviD MPEG-4 ~1639 kbps avg, 0.21 bit/pixel
Аудио: 48 kHz, MPEG Layer 3, 2 ch, ~128.00 kbps avg

Отчет MI

Общее
Полное имя : Rassleduet.brigada.Bychkova.1985.XviD.TVRip.fenixclub.avi
Format : AVI
Format/Info : Audio Video Interleave
File size : 1.46 GiB
Duration : 1h 57mn
Overall bit rate : 1 777 Kbps
Writing application : VirtualDubModRus 1.5.10.2 (build 2542/release)
Writing library : VirtualDubMod build 2542/release
Video
ID : 0
Format : MPEG-4 Visual
Format profile : Advanced Simple@L5
Format settings, BVOP : 2
Format settings, QPel : No
Format settings, GMC : No warppoints
Format settings, Matrix : Default (H.263)
Muxing mode : Packed bitstream
Codec ID : XVID
Codec ID/Hint : XviD
Duration : 1h 57mn
Bit rate : 1 640 Kbps
Width : 640 pixels
Height : 480 pixels
Display aspect ratio : 4:3
Frame rate : 25.000 fps
Original frame rate : 24.000 fps
Color space : YUV
Chroma subsampling : 4:2:0
Bit depth : 8 bits
Scan type : Progressive
Compression mode : Lossy
Bits/(Pixel*Frame) : 0.213
Stream size : 1.34 GiB (92%)
Writing library : XviD 73
Audio
ID : 1
Format : MPEG Audio
Format version : Version 1
Format profile : Layer 3
Mode : Joint stereo
Mode extension : MS Stereo
Codec ID : 55
Codec ID/Hint : MP3
Duration : 1h 57mn
Bit rate mode : Constant
Bit rate : 128 Kbps
Channel(s) : 2 channels
Sampling rate : 48.0 KHz
Compression mode : Lossy
Stream size : 107 MiB (7%)
Alignment : Aligned on interleaves
Interleave, duration : 40 ms (1.00 video frame)
Interleave, preload duratio : 504 ms.

Скриншоты


Альтернативный хост





Показать сообщения:    

Текущее время: 02-Дек 21:10

Часовой пояс: UTC + 3


Вы не можете начинать темы
Вы не можете отвечать на сообщения
Вы не можете редактировать свои сообщения
Вы не можете удалять свои сообщения
Вы не можете голосовать в опросах
Вы не можете прикреплять файлы к сообщениям
Вы не можете скачивать файлы