Художники, визионеры, циркачи. Очерки визуального театра [2012, Россия, Франция, Швейцария, Театр кукол, театр художника, визуальный театр, DVD5]


 

[Цитировать]

Художники, визионеры, циркачи. Очерки визуального театра
Название театра:
Компания Филиппа Жанти / Compagnie Philippe Genty
Формальный театр / Formal Theater
Театр Ахе / Akhe
Театр Тень / Shadow Theater
Бартабас / Bartabas
Даниэле Финци Паска / Daniele Finzi Pasca
Виктория Чаплин и Жан-Батист Тьере / Victoria Chaplin and Jean-Baptiste Thiérrée
Компания майского жука / La Compagnie du Hanneton
Компания Маленькие часы / Compagnie des Petites Heures
Страна: Россия, Франция, Швейцария
Жанр: Театр кукол, театр художника, визуальный театр
Год выпуска: 2012
Продолжительность: 01:33:03
Перевод: Не требуется
Режиссёр:
Филипп Жанти / Philippe Genty
Андрей Могучий / Andrey Moguchy
Максим Исаев и Павел Семченко / Maksim Isaev and Pavel Semchenko
Майя Краснопольская и Илья Эпельбаум / Maya Krasnopolskaya and Ilya Epelbaum
Бартабас / Bartabas
Даниэле Финци Паска / Daniele Finzi Pasca
Виктория Чаплин и Жан-Батист Тьере / Victoria Chaplin and Jean-Baptiste Thiérrée
Джеймс Тьере / James Thierrée
Аурелия Тьере / Aurelia Thierrée
Описание:
DVD-приложение к книге Дины Годер «Художники, визионеры, циркачи. Очерки визуального театра».
Отрывки из спектаклей и представлений различных театральных коллективов.
Театральный пейзаж в XXI веке существенно изменился. В эпоху постмодернизма с её любовью к смешению жанров режиссеры театра транслируют свои фантазии и переживания зрителю напрямую, отказываясь от адаптации в виде связной истории.
Что такое «визуальный театр», о котором в последние годы говорят так много? Это странный и новый термин, но любителям современного театра его пояснять не нужно: речь идет о спектаклях, которые говорят со зрителем прежде всего с помощью сценических картин, а не сюжета, визуальных образов, а не текста.
Этот театр существует на границах жанров, соединяя драму с современным изобразительным искусством, с танцем, цирком и куклами, с опытом брутальных уличных шоу вместе с высокими видео- и медиатехнологиями. Исследованию феномена «визуального театра» посвящена новая книга Дины Годер.
Книга театрального критика Дины Годер выпущена в издательстве «Новое литературное обозрение» по инициативе и при содействии «Золотой Маски»

Содержание диска

ВИЗИОНЕРЫ (35:22)
1. Филипп Жанти. «Край земли»
Из видеоархива международного театрального фестиваля имени А.П. Чехова
2. Филипп Жанти. «Болилок»
Из видеоархива международного театрального фестиваля имени А.П. Чехова
3. Филипп Жанти. «Неподвижные пассажиры»
Из видеоархива международного театрального фестиваля имени А.П. Чехова
4. Андрей Могучий. «Школа для дураков»
Из видеоархива «Формального театра»
5. Андрей Могучий. «Между собакой и волком»
Из видеоархива «Формального театра»
6. Андрей Могучий. «Иваны»
Из видеоархива Александринского театра
7. Андрей Могучий. «Петербург»
Из видеоархива Александринского театра
ТЕАТР ХУДОЖНИКА (12:13)
8. Ахе. Sine loco
Из видеоархива театра Ахе
ПРЕДМЕТНЫЙ ТЕАТР И ТЕАТР КУКОЛ (12:00)
9. Театр «Тень». «Дождь после потопа»
Из видеоархива театра «Тень»
10. Театр «Тень». «Смерть Полифема»
Из видеоархива театра «Тень»
11. Театр «Тень». «Орфей»
Из видеоархива театра «Тень»
ТЕАТР ВИДЕО И МЕДИА (11:06)
12. Ахе. «Гобо. Цифровой глоссарий»
Из видеоархива театра Ахе
13. Ахе. «Депо гениальных заблуждений»
Из видеоархива театра Ахе
ТЕАТР-ЦИРК (16:12)
14. Бартабас. «Баттута»
Из видеоархива международного театрального фестиваля имени А.П. Чехова
15. Даниэле Финци Паска. «Дождь»
Из видеоархива международного театрального фестиваля имени А.П. Чехова
16. Виктория Чаплин и Жан-Батист Тьере. «Невидимый цирк»
Из видеоархива международного театрального фестиваля имени А.П. Чехова
17. «Компания майского жука». «До свидания, зонтик»
Из видеоархива международного театрального фестиваля имени А.П. Чехова
18. Компания «Маленькие часы». «Оратория Аурелии»
Из видеоархива международного театрального фестиваля имени А.П. Чехова
ТЕАТР ПОД ОТКРЫТЫМ НЕБОМ (06:10)
19. Ахе. «Мокрая свадьба»
Из видеоархива театра Ахе
Качество видео: DVD5
Формат видео: DVD Video
Видео: MPEG2, 720x576 (4:3), VBR, 25.000 fps
Аудио: AC3, 2 ch, 192 Kbps, 48.000 KHz

MediaInfo

General
Complete name : /videos/ТЕАТР/Художники. Визионеры. Циркачи/VIDEO_TS/VIDEO_TS.BUP
Format : DVD Video
Format profile : Menu
File size : 22.0 KiB
Overall bit rate mode : Variable
Video
ID : 224 (0xE0)
Format : MPEG Video
Format version : Version 2
Bit rate mode : Variable
Width : 720 pixels
Height : 576 pixels
Display aspect ratio : 4:3
Frame rate : 25.000 fps
Standard : PAL
Compression mode : Lossy
Text
Format : RLE
Format/Info : Run-length encoding
Bit depth : 2 bits
General
Complete name : /videos/ТЕАТР/Художники. Визионеры. Циркачи/VIDEO_TS/VIDEO_TS.IFO
Format : DVD Video
Format profile : Menu
File size : 22.0 KiB
Overall bit rate mode : Variable
Video
ID : 224 (0xE0)
Format : MPEG Video
Format version : Version 2
Bit rate mode : Variable
Width : 720 pixels
Height : 576 pixels
Display aspect ratio : 4:3
Frame rate : 25.000 fps
Standard : PAL
Compression mode : Lossy
Text
Format : RLE
Format/Info : Run-length encoding
Bit depth : 2 bits
General
Complete name : /videos/ТЕАТР/Художники. Визионеры. Циркачи/VIDEO_TS/VIDEO_TS.VOB
Format : MPEG-PS
File size : 426 KiB
Duration : 480ms
Overall bit rate : 7 270 Kbps
Writing library : encoded by TMPGEnc Authoring Works 4 Version. 4.0.9.37
Video
ID : 224 (0xE0)
Format : MPEG Video
Format version : Version 2
Format profile : Main@Main
Format settings, BVOP : Yes
Format settings, Matrix : Custom
Duration : 480ms
Maximum bit rate : 7 000 Kbps
Width : 720 pixels
Height : 576 pixels
Display aspect ratio : 4:3
Frame rate : 25.000 fps
Standard : PAL
Color space : YUV
Chroma subsampling : 4:2:0
Bit depth : 8 bits
Scan type : Progressive
Compression mode : Lossy
Time code of first frame : 00:00:00:00
Time code source : Group of pictures header
Source encoded stream size : encoded by TMPGEnc Authoring Works 4 Version. 4.0.9.37
Writing library : TMPGEnc Authoring Works 4 Version. 4.0.9.37
Color primaries : BT.601 PAL
Transfer characteristics : BT.470 System B, BT.470 System G
Matrix coefficients : BT.601
Text
ID : 189 (0xBD)-32 (0x20)
Format : RLE
Format/Info : Run-length encoding
Muxing mode : DVD-Video
Menu
General
Complete name : /videos/ТЕАТР/Художники. Визионеры. Циркачи/VIDEO_TS/VTS_01_0.BUP
Format : DVD Video
Format profile : Program
File size : 38.0 KiB
Duration : 35mn 22s
Overall bit rate mode : Variable
Overall bit rate : 147 bps
Video
ID : 224 (0xE0)
Format : MPEG Video
Format version : Version 2
Duration : 35mn 22s
Bit rate mode : Variable
Width : 720 pixels
Height : 576 pixels
Display aspect ratio : 4:3
Frame rate : 25.000 fps
Standard : PAL
Compression mode : Lossy
Audio
ID : 128 (0x80)
Format : AC-3
Format/Info : Audio Coding 3
Duration : 35mn 22s
Channel(s) : 2 channels
Sampling rate : 48.0 KHz
Compression mode : Lossy
Menu
Duration : 35mn 22s
00:00:00.000 : Chapter 1
00:00:09.000 : Chapter 2
00:02:46.320 : Chapter 3
00:02:50.320 : Chapter 4
00:04:15.520 : Chapter 5
00:05:50.000 : Chapter 6
00:05:54.000 : Chapter 7
00:08:53.840 : Chapter 8
00:12:06.520 : Chapter 9
00:21:53.120 : Chapter 10
00:29:07.800 : Chapter 11
List (Audio) : 0
General
Complete name : /videos/ТЕАТР/Художники. Визионеры. Циркачи/VIDEO_TS/VTS_01_0.IFO
Format : DVD Video
Format profile : Program
File size : 38.0 KiB
Duration : 35mn 22s
Overall bit rate mode : Variable
Overall bit rate : 147 bps
Video
ID : 224 (0xE0)
Format : MPEG Video
Format version : Version 2
Duration : 35mn 22s
Bit rate mode : Variable
Width : 720 pixels
Height : 576 pixels
Display aspect ratio : 4:3
Frame rate : 25.000 fps
Standard : PAL
Compression mode : Lossy
Audio
ID : 128 (0x80)
Format : AC-3
Format/Info : Audio Coding 3
Duration : 35mn 22s
Channel(s) : 2 channels
Sampling rate : 48.0 KHz
Compression mode : Lossy
Menu
Duration : 35mn 22s
00:00:00.000 : Chapter 1
00:00:09.000 : Chapter 2
00:02:46.320 : Chapter 3
00:02:50.320 : Chapter 4
00:04:15.520 : Chapter 5
00:05:50.000 : Chapter 6
00:05:54.000 : Chapter 7
00:08:53.840 : Chapter 8
00:12:06.520 : Chapter 9
00:21:53.120 : Chapter 10
00:29:07.800 : Chapter 11
List (Audio) : 0
General
Complete name : /videos/ТЕАТР/Художники. Визионеры. Циркачи/VIDEO_TS/VTS_01_0.VOB
Format : MPEG-PS
File size : 426 KiB
Duration : 480ms
Overall bit rate : 7 270 Kbps
Writing library : encoded by TMPGEnc Authoring Works 4 Version. 4.0.9.37
Video
ID : 224 (0xE0)
Format : MPEG Video
Format version : Version 2
Format profile : Main@Main
Format settings, BVOP : Yes
Format settings, Matrix : Custom
Duration : 480ms
Maximum bit rate : 7 000 Kbps
Width : 720 pixels
Height : 576 pixels
Display aspect ratio : 4:3
Frame rate : 25.000 fps
Standard : PAL
Color space : YUV
Chroma subsampling : 4:2:0
Bit depth : 8 bits
Scan type : Progressive
Compression mode : Lossy
Time code of first frame : 00:00:00:00
Time code source : Group of pictures header
Source encoded stream size : encoded by TMPGEnc Authoring Works 4 Version. 4.0.9.37
Writing library : TMPGEnc Authoring Works 4 Version. 4.0.9.37
Color primaries : BT.601 PAL
Transfer characteristics : BT.470 System B, BT.470 System G
Matrix coefficients : BT.601
Text
ID : 189 (0xBD)-32 (0x20)
Format : RLE
Format/Info : Run-length encoding
Muxing mode : DVD-Video
Menu
General
Complete name : /videos/ТЕАТР/Художники. Визионеры. Циркачи/VIDEO_TS/VTS_01_1.VOB
Format : MPEG-PS
File size : 1 024 MiB
Duration : 31mn 50s
Overall bit rate mode : Variable
Overall bit rate : 4 495 Kbps
Writing library : encoded by TMPGEnc Authoring Works 4 Version. 4.0.9.37
Video
ID : 224 (0xE0)
Format : MPEG Video
Format version : Version 2
Format profile : Main@Main
Format settings, BVOP : Yes
Format settings, Matrix : Custom
Format settings, GOP : Variable
Duration : 31mn 50s
Bit rate mode : Variable
Bit rate : 4 214 Kbps
Maximum bit rate : 9 641 Kbps
Width : 720 pixels
Height : 576 pixels
Display aspect ratio : 4:3
Frame rate : 25.000 fps
Standard : PAL
Color space : YUV
Chroma subsampling : 4:2:0
Bit depth : 8 bits
Scan type : Interlaced
Scan order : Bottom Field First
Compression mode : Lossy
Bits/(Pixel*Frame) : 0.406
Time code of first frame : 00:00:00:00
Time code source : Group of pictures header
Stream size : 960 MiB (94%)
Source encoded stream size : encoded by TMPGEnc Authoring Works 4 Version. 4.0.9.37
Writing library : TMPGEnc Authoring Works 4 Version. 4.0.9.37
Color primaries : BT.601 PAL
Transfer characteristics : BT.470 System B, BT.470 System G
Matrix coefficients : BT.601
Audio
ID : 189 (0xBD)-128 (0x80)
Format : AC-3
Format/Info : Audio Coding 3
Mode extension : CM (complete main)
Format settings, Endianness : Big
Muxing mode : DVD-Video
Duration : 31mn 50s
Bit rate mode : Constant
Bit rate : 192 Kbps
Channel(s) : 2 channels
Channel positions : Front: L R
Sampling rate : 48.0 KHz
Bit depth : 16 bits
Compression mode : Lossy
Stream size : 43.7 MiB (4%)
Menu
General
Complete name : /videos/ТЕАТР/Художники. Визионеры. Циркачи/VIDEO_TS/VTS_01_2.VOB
Format : MPEG-PS
File size : 159 MiB
Duration : 3mn 31s
Overall bit rate mode : Variable
Overall bit rate : 6 299 Kbps
Video
ID : 224 (0xE0)
Format : MPEG Video
Format version : Version 2
Format profile : Main@Main
Format settings, BVOP : Yes
Format settings, Matrix : Default
Format settings, GOP : Variable
Duration : 3mn 31s
Bit rate mode : Variable
Bit rate : 5 982 Kbps
Maximum bit rate : 9 641 Kbps
Width : 720 pixels
Height : 576 pixels
Display aspect ratio : 4:3
Frame rate : 25.000 fps
Standard : PAL
Color space : YUV
Chroma subsampling : 4:2:0
Bit depth : 8 bits
Scan type : Interlaced
Scan order : Bottom Field First
Compression mode : Lossy
Bits/(Pixel*Frame) : 0.577
Time code of first frame : 00:31:50:18
Time code source : Group of pictures header
Stream size : 151 MiB (95%)
Color primaries : BT.601 PAL
Transfer characteristics : BT.470 System B, BT.470 System G
Matrix coefficients : BT.601
Audio
ID : 189 (0xBD)-128 (0x80)
Format : AC-3
Format/Info : Audio Coding 3
Mode extension : CM (complete main)
Format settings, Endianness : Big
Muxing mode : DVD-Video
Duration : 3mn 31s
Bit rate mode : Constant
Bit rate : 192 Kbps
Channel(s) : 2 channels
Channel positions : Front: L R
Sampling rate : 48.0 KHz
Bit depth : 16 bits
Compression mode : Lossy
Delay relative to video : -464ms
Stream size : 4.85 MiB (3%)
Menu
General
Complete name : /videos/ТЕАТР/Художники. Визионеры. Циркачи/VIDEO_TS/VTS_02_0.BUP
Format : DVD Video
Format profile : Program
File size : 26.0 KiB
Duration : 12mn 13s
Overall bit rate mode : Variable
Overall bit rate : 290 bps
Video
ID : 224 (0xE0)
Format : MPEG Video
Format version : Version 2
Duration : 12mn 13s
Bit rate mode : Variable
Width : 720 pixels
Height : 576 pixels
Display aspect ratio : 4:3
Frame rate : 25.000 fps
Standard : PAL
Compression mode : Lossy
Audio
ID : 128 (0x80)
Format : AC-3
Format/Info : Audio Coding 3
Duration : 12mn 13s
Channel(s) : 2 channels
Sampling rate : 48.0 KHz
Compression mode : Lossy
Menu
Duration : 12mn 13s
00:00:00.000 : Chapter 1
List (Audio) : 0
General
Complete name : /videos/ТЕАТР/Художники. Визионеры. Циркачи/VIDEO_TS/VTS_02_0.IFO
Format : DVD Video
Format profile : Program
File size : 26.0 KiB
Duration : 12mn 13s
Overall bit rate mode : Variable
Overall bit rate : 290 bps
Video
ID : 224 (0xE0)
Format : MPEG Video
Format version : Version 2
Duration : 12mn 13s
Bit rate mode : Variable
Width : 720 pixels
Height : 576 pixels
Display aspect ratio : 4:3
Frame rate : 25.000 fps
Standard : PAL
Compression mode : Lossy
Audio
ID : 128 (0x80)
Format : AC-3
Format/Info : Audio Coding 3
Duration : 12mn 13s
Channel(s) : 2 channels
Sampling rate : 48.0 KHz
Compression mode : Lossy
Menu
Duration : 12mn 13s
00:00:00.000 : Chapter 1
List (Audio) : 0
General
Complete name : /videos/ТЕАТР/Художники. Визионеры. Циркачи/VIDEO_TS/VTS_02_0.VOB
Format : MPEG-PS
File size : 422 KiB
Duration : 480ms
Overall bit rate : 7 202 Kbps
Writing library : encoded by TMPGEnc Authoring Works 4 Version. 4.0.9.37
Video
ID : 224 (0xE0)
Format : MPEG Video
Format version : Version 2
Format profile : Main@Main
Format settings, BVOP : Yes
Format settings, Matrix : Custom
Duration : 480ms
Maximum bit rate : 7 000 Kbps
Width : 720 pixels
Height : 576 pixels
Display aspect ratio : 4:3
Frame rate : 25.000 fps
Standard : PAL
Color space : YUV
Chroma subsampling : 4:2:0
Bit depth : 8 bits
Scan type : Progressive
Compression mode : Lossy
Time code of first frame : 00:00:00:00
Time code source : Group of pictures header
Source encoded stream size : encoded by TMPGEnc Authoring Works 4 Version. 4.0.9.37
Writing library : TMPGEnc Authoring Works 4 Version. 4.0.9.37
Color primaries : BT.601 PAL
Transfer characteristics : BT.470 System B, BT.470 System G
Matrix coefficients : BT.601
Text
ID : 189 (0xBD)-32 (0x20)
Format : RLE
Format/Info : Run-length encoding
Muxing mode : DVD-Video
Menu
General
Complete name : /videos/ТЕАТР/Художники. Визионеры. Циркачи/VIDEO_TS/VTS_02_1.VOB
Format : MPEG-PS
File size : 723 MiB
Duration : 12mn 13s
Overall bit rate mode : Variable
Overall bit rate : 8 269 Kbps
Writing library : encoded by TMPGEnc Authoring Works 4 Version. 4.0.9.37
Video
ID : 224 (0xE0)
Format : MPEG Video
Format version : Version 2
Format profile : Main@Main
Format settings, BVOP : Yes
Format settings, Matrix : Custom
Format settings, GOP : Variable
Duration : 12mn 13s
Bit rate mode : Variable
Bit rate : 7 880 Kbps
Maximum bit rate : 8 000 Kbps
Width : 720 pixels
Height : 576 pixels
Display aspect ratio : 4:3
Frame rate : 25.000 fps
Standard : PAL
Color space : YUV
Chroma subsampling : 4:2:0
Bit depth : 8 bits
Scan type : Interlaced
Scan order : Bottom Field First
Compression mode : Lossy
Bits/(Pixel*Frame) : 0.760
Time code of first frame : 00:00:00:00
Time code source : Group of pictures header
Stream size : 689 MiB (95%)
Source encoded stream size : encoded by TMPGEnc Authoring Works 4 Version. 4.0.9.37
Writing library : TMPGEnc Authoring Works 4 Version. 4.0.9.37
Color primaries : BT.601 PAL
Transfer characteristics : BT.470 System B, BT.470 System G
Matrix coefficients : BT.601
Audio
ID : 189 (0xBD)-128 (0x80)
Format : AC-3
Format/Info : Audio Coding 3
Mode extension : CM (complete main)
Format settings, Endianness : Big
Muxing mode : DVD-Video
Duration : 12mn 13s
Bit rate mode : Constant
Bit rate : 224 Kbps
Channel(s) : 2 channels
Channel positions : Front: L R
Sampling rate : 48.0 KHz
Bit depth : 16 bits
Compression mode : Lossy
Stream size : 19.6 MiB (3%)
Menu
General
Complete name : /videos/ТЕАТР/Художники. Визионеры. Циркачи/VIDEO_TS/VTS_03_0.BUP
Format : DVD Video
Format profile : Program
File size : 26.0 KiB
Duration : 12mn 0s
Overall bit rate mode : Variable
Overall bit rate : 296 bps
Video
ID : 224 (0xE0)
Format : MPEG Video
Format version : Version 2
Duration : 12mn 0s
Bit rate mode : Variable
Width : 720 pixels
Height : 576 pixels
Display aspect ratio : 4:3
Frame rate : 25.000 fps
Standard : PAL
Compression mode : Lossy
Audio
ID : 128 (0x80)
Format : AC-3
Format/Info : Audio Coding 3
Duration : 12mn 0s
Channel(s) : 2 channels
Sampling rate : 48.0 KHz
Compression mode : Lossy
Menu
Duration : 12mn 0s
00:00:00.000 : Chapter 1
00:00:16.200 : Chapter 2
00:02:52.280 : Chapter 3
00:08:03.960 : Chapter 4
List (Audio) : 0
General
Complete name : /videos/ТЕАТР/Художники. Визионеры. Циркачи/VIDEO_TS/VTS_03_0.IFO
Format : DVD Video
Format profile : Program
File size : 26.0 KiB
Duration : 12mn 0s
Overall bit rate mode : Variable
Overall bit rate : 296 bps
Video
ID : 224 (0xE0)
Format : MPEG Video
Format version : Version 2
Duration : 12mn 0s
Bit rate mode : Variable
Width : 720 pixels
Height : 576 pixels
Display aspect ratio : 4:3
Frame rate : 25.000 fps
Standard : PAL
Compression mode : Lossy
Audio
ID : 128 (0x80)
Format : AC-3
Format/Info : Audio Coding 3
Duration : 12mn 0s
Channel(s) : 2 channels
Sampling rate : 48.0 KHz
Compression mode : Lossy
Menu
Duration : 12mn 0s
00:00:00.000 : Chapter 1
00:00:16.200 : Chapter 2
00:02:52.280 : Chapter 3
00:08:03.960 : Chapter 4
List (Audio) : 0
General
Complete name : /videos/ТЕАТР/Художники. Визионеры. Циркачи/VIDEO_TS/VTS_03_0.VOB
Format : MPEG-PS
File size : 424 KiB
Duration : 480ms
Overall bit rate : 7 236 Kbps
Writing library : encoded by TMPGEnc Authoring Works 4 Version. 4.0.9.37
Video
ID : 224 (0xE0)
Format : MPEG Video
Format version : Version 2
Format profile : Main@Main
Format settings, BVOP : Yes
Format settings, Matrix : Custom
Duration : 480ms
Maximum bit rate : 7 000 Kbps
Width : 720 pixels
Height : 576 pixels
Display aspect ratio : 4:3
Frame rate : 25.000 fps
Standard : PAL
Color space : YUV
Chroma subsampling : 4:2:0
Bit depth : 8 bits
Scan type : Progressive
Compression mode : Lossy
Time code of first frame : 00:00:00:00
Time code source : Group of pictures header
Source encoded stream size : encoded by TMPGEnc Authoring Works 4 Version. 4.0.9.37
Writing library : TMPGEnc Authoring Works 4 Version. 4.0.9.37
Color primaries : BT.601 PAL
Transfer characteristics : BT.470 System B, BT.470 System G
Matrix coefficients : BT.601
Text
ID : 189 (0xBD)-32 (0x20)
Format : RLE
Format/Info : Run-length encoding
Muxing mode : DVD-Video
Menu
General
Complete name : /videos/ТЕАТР/Художники. Визионеры. Циркачи/VIDEO_TS/VTS_03_1.VOB
Format : MPEG-PS
File size : 658 MiB
Duration : 12mn 0s
Overall bit rate mode : Variable
Overall bit rate : 7 668 Kbps
Writing library : encoded by TMPGEnc Authoring Works 4 Version. 4.0.9.37
Video
ID : 224 (0xE0)
Format : MPEG Video
Format version : Version 2
Format profile : Main@Main
Format settings, BVOP : Yes
Format settings, Matrix : Custom
Format settings, GOP : Variable
Duration : 12mn 0s
Bit rate mode : Variable
Bit rate : 7 291 Kbps
Maximum bit rate : 8 000 Kbps
Width : 720 pixels
Height : 576 pixels
Display aspect ratio : 4:3
Frame rate : 25.000 fps
Standard : PAL
Color space : YUV
Chroma subsampling : 4:2:0
Bit depth : 8 bits
Scan type : Interlaced
Scan order : Bottom Field First
Compression mode : Lossy
Bits/(Pixel*Frame) : 0.703
Time code of first frame : 00:00:00:00
Time code source : Group of pictures header
Stream size : 626 MiB (95%)
Source encoded stream size : encoded by TMPGEnc Authoring Works 4 Version. 4.0.9.37
Writing library : TMPGEnc Authoring Works 4 Version. 4.0.9.37
Color primaries : BT.601 PAL
Transfer characteristics : BT.470 System B, BT.470 System G
Matrix coefficients : BT.601
Audio
ID : 189 (0xBD)-128 (0x80)
Format : AC-3
Format/Info : Audio Coding 3
Mode extension : CM (complete main)
Format settings, Endianness : Big
Muxing mode : DVD-Video
Duration : 12mn 0s
Bit rate mode : Constant
Bit rate : 224 Kbps
Channel(s) : 2 channels
Channel positions : Front: L R
Sampling rate : 48.0 KHz
Bit depth : 16 bits
Compression mode : Lossy
Stream size : 19.2 MiB (3%)
Menu
General
Complete name : /videos/ТЕАТР/Художники. Визионеры. Циркачи/VIDEO_TS/VTS_04_0.BUP
Format : DVD Video
Format profile : Program
File size : 26.0 KiB
Duration : 11mn 6s
Overall bit rate mode : Variable
Overall bit rate : 320 bps
Video
ID : 224 (0xE0)
Format : MPEG Video
Format version : Version 2
Duration : 11mn 6s
Bit rate mode : Variable
Width : 720 pixels
Height : 576 pixels
Display aspect ratio : 16:9
Frame rate : 25.000 fps
Standard : PAL
Compression mode : Lossy
Audio
ID : 128 (0x80)
Format : AC-3
Format/Info : Audio Coding 3
Duration : 11mn 6s
Channel(s) : 2 channels
Sampling rate : 48.0 KHz
Compression mode : Lossy
Menu
Duration : 11mn 6s
00:00:00.000 : Chapter 1
00:04:17.400 : Chapter 2
List (Audio) : 0
General
Complete name : /videos/ТЕАТР/Художники. Визионеры. Циркачи/VIDEO_TS/VTS_04_0.IFO
Format : DVD Video
Format profile : Program
File size : 26.0 KiB
Duration : 11mn 6s
Overall bit rate mode : Variable
Overall bit rate : 320 bps
Video
ID : 224 (0xE0)
Format : MPEG Video
Format version : Version 2
Duration : 11mn 6s
Bit rate mode : Variable
Width : 720 pixels
Height : 576 pixels
Display aspect ratio : 16:9
Frame rate : 25.000 fps
Standard : PAL
Compression mode : Lossy
Audio
ID : 128 (0x80)
Format : AC-3
Format/Info : Audio Coding 3
Duration : 11mn 6s
Channel(s) : 2 channels
Sampling rate : 48.0 KHz
Compression mode : Lossy
Menu
Duration : 11mn 6s
00:00:00.000 : Chapter 1
00:04:17.400 : Chapter 2
List (Audio) : 0
General
Complete name : /videos/ТЕАТР/Художники. Визионеры. Циркачи/VIDEO_TS/VTS_04_0.VOB
Format : MPEG-PS
File size : 422 KiB
Duration : 480ms
Overall bit rate : 7 202 Kbps
Writing library : encoded by TMPGEnc Authoring Works 4 Version. 4.0.9.37
Video
ID : 224 (0xE0)
Format : MPEG Video
Format version : Version 2
Format profile : Main@Main
Format settings, BVOP : Yes
Format settings, Matrix : Custom
Duration : 480ms
Maximum bit rate : 7 000 Kbps
Width : 720 pixels
Height : 576 pixels
Display aspect ratio : 4:3
Frame rate : 25.000 fps
Standard : PAL
Color space : YUV
Chroma subsampling : 4:2:0
Bit depth : 8 bits
Scan type : Progressive
Compression mode : Lossy
Time code of first frame : 00:00:00:00
Time code source : Group of pictures header
Source encoded stream size : encoded by TMPGEnc Authoring Works 4 Version. 4.0.9.37
Writing library : TMPGEnc Authoring Works 4 Version. 4.0.9.37
Color primaries : BT.601 PAL
Transfer characteristics : BT.470 System B, BT.470 System G
Matrix coefficients : BT.601
Text
ID : 189 (0xBD)-32 (0x20)
Format : RLE
Format/Info : Run-length encoding
Muxing mode : DVD-Video
Menu
General
Complete name : /videos/ТЕАТР/Художники. Визионеры. Циркачи/VIDEO_TS/VTS_04_1.VOB
Format : MPEG-PS
File size : 463 MiB
Duration : 11mn 6s
Overall bit rate mode : Variable

Скриншот с названием постановки




Показать сообщения:    

Текущее время: 08-Дек 08:58

Часовой пояс: UTC + 3


Вы не можете начинать темы
Вы не можете отвечать на сообщения
Вы не можете редактировать свои сообщения
Вы не можете удалять свои сообщения
Вы не можете голосовать в опросах
Вы не можете прикреплять файлы к сообщениям
Вы не можете скачивать файлы