Старосветские помещики (Давид Карасик) [1979 г., мелодрама, экранизация, телеспектакль, SATRip]


 

[Цитировать]

Старосветские помещики Год выпуска: 1979.
Жанр: мелодрама, экранизация, телеспектакль.
Продолжительность: 01:13:10.
Режиссер-постановщик: Давид Карасик.
Действующие лица и исполнители:
Пульхерия Ивановна - заслуженная артистка РСФСР Людмила Жукова,
Афанасий Иванович - народный артист РСФСР Николай Трофимов,
От автора - заслуженный артист РСФСР Леонид Дьячков,
А также: Елена Вановская, Эра Зиганшина, Майя Тупикова, Александр Анисимов, Сергей Мучеников.
Описание:
Телеспектакль по одноименной повести Николая Васильевича Гоголя.
Старики Афанасий Иванович Товстогуб и жена его Пульхерия Ивановна живут уединенно в одной из отдаленных деревень, называемых в Малороссии старосветскими. Жизнь их так тиха, что гостю, заехавшему ненароком в низенький барский домик, утопающий в зелени сада, страсти и тревожные волнения внешнего мира кажутся не существующими вовсе. Маленькие комнаты домика заставлены всевозможными вещицами, двери поют на разные лады, кладовые заполнены припасами, приготовлением которых беспрестанно заняты дворовые под управлением Пульхерии Ивановны. Несмотря на то что хозяйство обкрадывается приказчиком и лакеями, благословенная земля производит всего в таком количестве, что Афанасий Иванович и Пульхерия Ивановна совсем не замечают хищений.

Дополнительная информация:
Страна: СССР .
Выпущено: © Ленинградское телевидение.
Автор: Николай Гоголь.
Композитор: Станислав Важов.
Художник: Сергей Скинтеев.
Операторы: Владимир Гречишкин, Андрей Константинов, А. Куликов.
Релиз

Качество: SATRip
Формат: AVI
Видео: 640x496 (1.29:1), 25 fps, XviD MPEG-4 ~1277 kbps avg, 0.16 bit/pixel
Аудио: 48 kHz, MPEG Layer 3, 2 ch, ~128.00 kbps avg

Отчет MI

Общее
Полное имя : Starosvetskie.pomewiki.1979.XviD.TVRip.fenixclub.avi
Format : AVI
Format/Info : Audio Video Interleave
File size : 741 MiB
Duration : 1h 13mn
Overall bit rate : 1 416 Kbps
Writing application : VirtualDubModRus 1.5.10.2 (build 2542/release)
Writing library : VirtualDubMod build 2542/release
Video
ID : 0
Format : MPEG-4 Visual
Format profile : Advanced Simple@L5
Format settings, BVOP : 2
Format settings, QPel : No
Format settings, GMC : No warppoints
Format settings, Matrix : Default (H.263)
Muxing mode : Packed bitstream
Codec ID : XVID
Codec ID/Hint : XviD
Duration : 1h 13mn
Bit rate : 1 278 Kbps
Width : 640 pixels
Height : 496 pixels
Display aspect ratio : 1.290
Frame rate : 25.000 fps
Original frame rate : 24.000 fps
Color space : YUV
Chroma subsampling : 4:2:0
Bit depth : 8 bits
Scan type : Progressive
Compression mode : Lossy
Bits/(Pixel*Frame) : 0.161
Stream size : 669 MiB (90%)
Writing library : XviD 73
Audio
ID : 1
Format : MPEG Audio
Format version : Version 1
Format profile : Layer 3
Mode : Joint stereo
Mode extension : MS Stereo
Codec ID : 55
Codec ID/Hint : MP3
Duration : 1h 13mn
Bit rate mode : Constant
Bit rate : 128 Kbps
Channel(s) : 2 channels
Sampling rate : 48.0 KHz
Compression mode : Lossy
Stream size : 67.0 MiB (9%)
Alignment : Aligned on interleaves
Interleave, duration : 40 ms (1.00 video frame)
Interleave, preload duratio : 504 ms.

Скриншоты

Альтернативный хост




Показать сообщения:    

Текущее время: 07-Дек 11:38

Часовой пояс: UTC + 3


Вы не можете начинать темы
Вы не можете отвечать на сообщения
Вы не можете редактировать свои сообщения
Вы не можете удалять свои сообщения
Вы не можете голосовать в опросах
Вы не можете прикреплять файлы к сообщениям
Вы не можете скачивать файлы