Рудин (Инесса Мамышева) [1982 г., мелодрама, экранизация, телеспектакль, SATRip]


 

[Цитировать]

Рудин (2 части) Год выпуска: 1982.
Жанр: мелодрама, экранизация, телеспектакль.
Продолжительность: 01:04:35 + 00:59:37 (02:04:12).
Режиссер-постановщик: Инесса Мамышева.
Действующие лица и исполнители:
Рудин - Александр Мартынов,
Ласунская - заслуженная артистка РСФСР Елизавета Акуличева,
Наталья - Елена Антонова,
Лежнев - Михаил Филиппов,
Пигасов - народный артист РСФСР Станислав Ландграф,
Липина - Лариса Луппиан,
Волынцев - Андрей Тенетко,
Басистов - Сергей Кошонин,
М-ль Бонкур - заслуженная артистка РСФСР Эра Зиганшина,
Пандалевский - Сергей Мигицко,
От автора - народный артист РСФСР, народный артист Армянской ССР Армен Джигарханян.
Описание:
Спектакль по одноименному роману Ивана Сергеевича Тургенева.
Действие романа разворачивается в 1840-х годах. Столичная барыня Дарья Михайловна Ласунская каждое лето выезжает с детьми в деревню. Однажды в её доме появляется Рудин. Его склонность к полемике, пылкость, остроумие покоряют слушателей; Ласунская, впечатлённая речами Дмитрия Николаевича о просвещении, науке, смысле жизни, предлагает гостю пожить в её доме.
За два с лишним месяца жизни в имении Рудин стал любимым собеседником Дарьи Михайловны. Много времени проводил он и с дочерью хозяйки Натальей — давал ей книги, читал вступления к своим будущим статьям. В один из летних дней Рудин признался девушке в любви. Ласунская-старшая, узнав об этом тайном свидании, объявила дочери, что скорее согласится увидеть её мёртвой, чем женой Рудина.
Из-за нерешительности Дмитрия Николаевича влюблённые расстаются и он покидает имение...

Дополнительная информация:
Страна: СССР .
Выпущено: © Ленинградское телевидение.
Автор: Иван Тургенев.
Ведущий оператор: Евгений Уткин.
Художник: Константин Лютынский.
Музыкальное оформление: М. Мултанова.
Релиз

Качество: SATRip
Формат: AVI
Видео: 720x544 (1.32:1), 25 fps, XviD MPEG-4 ~1542 kbps avg, 0.16 bit/pixel
Аудио: 48 kHz, MPEG Layer 3, 2 ch, ~128.00 kbps avg

Отчет MI

1-я часть:
Общее
Полное имя : Rudin.(2.chasti.iz.2).1982.XviD.SATRip.fenixclub\Rudin.(1-ya.chast'.iz.2).1982.XviD.SATRip.fenixclub.avi
Format : AVI
Format/Info : Audio Video Interleave
File size : 776 MiB
Duration : 1h 4mn
Overall bit rate : 1 680 Kbps
Writing application : VirtualDubModRus 1.5.10.2 (build 2542/release)
Writing library : VirtualDub build 32842/release
Video
ID : 0
Format : MPEG-4 Visual
Format profile : Advanced Simple@L5
Format settings, BVOP : 2
Format settings, QPel : No
Format settings, GMC : No warppoints
Format settings, Matrix : Default (H.263)
Muxing mode : Packed bitstream
Codec ID : XVID
Codec ID/Hint : XviD
Duration : 1h 4mn
Bit rate : 1 543 Kbps
Width : 720 pixels
Height : 544 pixels
Display aspect ratio : 4:3
Frame rate : 25.000 fps
Color space : YUV
Chroma subsampling : 4:2:0
Bit depth : 8 bits
Scan type : Progressive
Compression mode : Lossy
Bits/(Pixel*Frame) : 0.158
Stream size : 713 MiB (92%)
Writing library : XviD 73
Audio
ID : 1
Format : MPEG Audio
Format version : Version 1
Format profile : Layer 3
Mode : Joint stereo
Mode extension : MS Stereo
Codec ID : 55
Codec ID/Hint : MP3
Duration : 1h 4mn
Bit rate mode : Constant
Bit rate : 128 Kbps
Channel(s) : 2 channels
Sampling rate : 48.0 KHz
Compression mode : Lossy
Stream size : 59.1 MiB (8%)
Alignment : Split accross interleaves
Interleave, duration : 40 ms (1.00 video frame)
Interleave, preload duratio : 500 ms.
2-я часть:
Общее
Полное имя : Rudin.(2.chasti.iz.2).1982.XviD.SATRip.fenixclub\Rudin.(2-ya.chast'.iz.2).1982.XviD.SATRip.fenixclub.avi
Format : AVI
Format/Info : Audio Video Interleave
File size : 717 MiB
Duration : 59mn 36s
Overall bit rate : 1 681 Kbps
Writing application : VirtualDubModRus 1.5.10.2 (build 2542/release)
Writing library : VirtualDub build 32842/release
Video
ID : 0
Format : MPEG-4 Visual
Format profile : Advanced Simple@L5
Format settings, BVOP : 2
Format settings, QPel : No
Format settings, GMC : No warppoints
Format settings, Matrix : Default (H.263)
Muxing mode : Packed bitstream
Codec ID : XVID
Codec ID/Hint : XviD
Duration : 59mn 36s
Bit rate : 1 543 Kbps
Width : 720 pixels
Height : 544 pixels
Display aspect ratio : 4:3
Frame rate : 25.000 fps
Color space : YUV
Chroma subsampling : 4:2:0
Bit depth : 8 bits
Scan type : Progressive
Compression mode : Lossy
Bits/(Pixel*Frame) : 0.158
Stream size : 658 MiB (92%)
Writing library : XviD 73
Audio
ID : 1
Format : MPEG Audio
Format version : Version 1
Format profile : Layer 3
Mode : Joint stereo
Mode extension : MS Stereo
Codec ID : 55
Codec ID/Hint : MP3
Duration : 59mn 36s
Bit rate mode : Constant
Bit rate : 128 Kbps
Channel(s) : 2 channels
Sampling rate : 48.0 KHz
Compression mode : Lossy
Stream size : 54.6 MiB (8%)
Alignment : Split accross interleaves
Interleave, duration : 40 ms (1.00 video frame)
Interleave, preload duratio : 500 ms.

Скриншоты


Альтернативный хост





Показать сообщения:    

Текущее время: 11-Дек 13:01

Часовой пояс: UTC + 3


Вы не можете начинать темы
Вы не можете отвечать на сообщения
Вы не можете редактировать свои сообщения
Вы не можете удалять свои сообщения
Вы не можете голосовать в опросах
Вы не можете прикреплять файлы к сообщениям
Вы не можете скачивать файлы