Чайка русской сцены (Александр Белинский) [1970 г., спектакль-концерт, телеспектакль, SATRip]


 

[Цитировать]

Чайка русской сцены Год выпуска: 1970.
Жанр: спектакль-концерт, телеспектакль.
Продолжительность: 00:50:10.
Режиссер-постановщик: Александр Белинский.
В ролях: Эмма Попова, Олег Басилашвили, Михаил Волков, Олег Окулевич, Сергей Юрский.
Описание:
Спектакль о великой русской актрисе Вере Федоровне Комиссаржевской.
Судьба великой русской актрисы словно вобрала в себя все боли и взлеты этой нелегкой профессии, и если бывают жизни типичные, то Комиссаржевская стала совершенным "типом" Мельпомены, богини, ненасытно требующей души и плоти артиста. Не зря именно Веру Федоровну назвали "чайкой русской сцены", признав только за ней право неким тревожным символом распахнуть крылья на театральном занавесе. Удивительно, но даже незначительные детали ее биографии какими-то незримыми нитями связаны с нашим представлением о настоящем актере.

Дополнительная информация:
Страна: СССР .
Выпущено: © Ленинградское телевидение.
Автор сценария: Татьяна Марченко.
Художник: Геннадий Дрейман.
Операторы: Михаил Филлипов, Сергей Мищук, Геннадий Уткин.
Музыка из произведений Сергея Рахманинова.
Исполняет: Евгений Шендерович.

Релиз

Качество: SATRip
Формат: AVI
Видео: 720x544 (1.32:1), 25 fps, XviD MPEG-4 ~1808 kbps avg, 0.18 bit/pixel
Аудио: 48 kHz, MPEG Layer 3, 2 ch, ~128.00 kbps avg

Отчет MI

Общее
Полное имя : Chajka.russkoj.sceny.1979.XviD.TVRip.fenixclub.avi
Format : AVI
Format/Info : Audio Video Interleave
File size : 699 MiB
Duration : 50mn 10s
Overall bit rate : 1 947 Kbps
Writing application : VirtualDubModRus 1.5.10.2 (build 2542/release)
Writing library : VirtualDub build 32842/release
Video
ID : 0
Format : MPEG-4 Visual
Format profile : Advanced Simple@L5
Format settings, BVOP : 2
Format settings, QPel : No
Format settings, GMC : No warppoints
Format settings, Matrix : Default (H.263)
Muxing mode : Packed bitstream
Codec ID : XVID
Codec ID/Hint : XviD
Duration : 50mn 10s
Bit rate : 1 809 Kbps
Width : 720 pixels
Height : 544 pixels
Display aspect ratio : 4:3
Frame rate : 25.000 fps
Color space : YUV
Chroma subsampling : 4:2:0
Bit depth : 8 bits
Scan type : Progressive
Compression mode : Lossy
Bits/(Pixel*Frame) : 0.185
Stream size : 649 MiB (93%)
Writing library : XviD 73
Audio
ID : 1
Format : MPEG Audio
Format version : Version 1
Format profile : Layer 3
Mode : Joint stereo
Codec ID : 55
Codec ID/Hint : MP3
Duration : 50mn 10s
Bit rate mode : Constant
Bit rate : 128 Kbps
Channel(s) : 2 channels
Sampling rate : 48.0 KHz
Compression mode : Lossy
Stream size : 45.9 MiB (7%)
Alignment : Split accross interleaves
Interleave, duration : 40 ms (1.00 video frame)
Interleave, preload duratio : 500 ms.

Скриншоты


Альтернативный хост





Показать сообщения:    

Текущее время: 10-Дек 06:06

Часовой пояс: UTC + 3


Вы не можете начинать темы
Вы не можете отвечать на сообщения
Вы не можете редактировать свои сообщения
Вы не можете удалять свои сообщения
Вы не можете голосовать в опросах
Вы не можете прикреплять файлы к сообщениям
Вы не можете скачивать файлы