Как важно быть серьезным (Игорь Яцко) [2014 г., комедия, SATRip] Московский театр "Школа драматического искусства"


 

[Цитировать]

Как важно быть серьезным (2 действия) Название театра: Московский театр "Школа драматического искусства".
Год выпуска: 2014.
Жанр: комедия.
Продолжительность: 01:29:04 + 01:52:12 (03:21:16).
Режиссер-постановщик: Игорь Яцко.
Действующие лица и исполнители:
Джон Уординг, землевладелец, почетный мировой судья - Владимир Петров,
Алджернон Монкриф - Роман Долгушин,
Его преподобие каноник Чезюбл, доктор богословия - Сергей Ганин,
Мерримен, дворецкий - Вадим Андреев,
Лэйн, лакей Монкрифа - Иван Товмасян,
Леди Брэкнелл - Людмила Дребнёва,
Гвендолен Ферфакс, ее дочь - Ольга Баландина,
Сесили Кардью - Ольга Бондарева,
Мисс Призм, ее гувернантка - Мария Зайкова,
Музыкант - Фёдор Амиров.
О спектакле:
В антракте - музыкальный вечер (Атриум театра): дуэты, ария и квартет на стихи Оскара Уайльда, а также "Элегия памяти O.W.". Музыка Вартана Ерицяна.
Важность серьёзности утверждается пьесой, в которой нет ни одного действительно серьёзного слова. Даже заглавие The Importance of Being Earnest — это игра слов, намекающая на некого Эрнеста, которым постоянно притворяются герои пьесы. Ироничный и афористичный англичанин Уайльд предлагает нам игру со словом, со стилем, с парадоксом, игру в джентльменов и денди.
В этой комедии сходится множество историй — и детективная, и любовная, и эстетическая... Но ни в чём не оказывается подлинно серьёзной вещи. Ирония будто очищает жизнь героев от ложных смыслов. И тогда возникает смех.

Дополнительная информация:
Страна: Россия .
Выпущено: Московский театр "Школа драматического искусства", © "Единая Медиа Группа", © по заказу Правительства Москвы.
Автор пьесы: Оскар Уайльд.
Перевод: Иван Бунин.
Художник-постановщик: Игорь Попов.
Художник по костюмам: Вадим Андреев.
Хореограф: Олег Глушков.
Художник по свету: Иван Даничев.
В спектакле использованы произведения: Фредерика Шопена, Франца Шуберта, Людвига Ван Бетховена, Рихарда Вагнера, Джоаккино Россини, Фёдора Амирова и Вартана Ерицяна.
Премьера спектакля состоялась 16 марта 2013 года.

О спектакле.
Релиз

Качество видео:...SATRip
Формат:.................AVI
Видео:..720x400 (1.80:1), 25 fps, XviD MPEG-4 ~1414 kbps avg, 0.20 bit/pixel
Аудио:..44.100 kHz, MPEG Layer 3, 2 ch, ~128.00 kbps avg

Отчет Media Info

1-е действие
General
Complete name : Kak.vazhno.byt.sereznym_Shkola.sovremennoj.p'esy.2014.XviD.SATRip.fenixclub\Kak.vazhno.byt.sereznym_Shkola.sovremennoj.p'esy.2014.XviD.SATRip.fenixclub.1.avi
Format : AVI
Format/Info : Audio Video Interleave
File size : 989 MiB
Duration : 1h 29mn
Overall bit rate : 1 553 Kbps
Writing application : VirtualDubModRus 1.5.10.2 (build 2542/release)
Writing library : VirtualDub build 32842/release
Video
ID : 0
Format : MPEG-4 Visual
Format profile : Advanced Simple@L5
Format settings, BVOP : 2
Format settings, QPel : No
Format settings, GMC : No warppoints
Format settings, Matrix : Default (H.263)
Muxing mode : Packed bitstream
Codec ID : XVID
Codec ID/Hint : XviD
Duration : 1h 29mn
Bit rate : 1 415 Kbps
Width : 720 pixels
Height : 400 pixels
Display aspect ratio : 16:9
Frame rate : 25.000 fps
Color space : YUV
Chroma subsampling : 4:2:0
Bit depth : 8 bits
Scan type : Progressive
Compression mode : Lossy
Bits/(Pixel*Frame) : 0.197
Stream size : 901 MiB (91%)
Writing library : XviD 73
Audio
ID : 1
Format : MPEG Audio
Format version : Version 1
Format profile : Layer 3
Mode : Joint stereo
Mode extension : MS Stereo
Codec ID : 55
Codec ID/Hint : MP3
Duration : 1h 29mn
Bit rate mode : Constant
Bit rate : 128 Kbps
Channel(s) : 2 channels
Sampling rate : 44.1 KHz
Compression mode : Lossy
Stream size : 81.6 MiB (8%)
Alignment : Split accross interleaves
Interleave, duration : 40 ms (1.00 video frame)
Interleave, preload duratio : 500 ms
Writing library : LAME3.98.2
2-е действие
General
Complete name : Kak.vazhno.byt.sereznym_Shkola.sovremennoj.p'esy.2014.XviD.SATRip.fenixclub\Kak.vazhno.byt.sereznym_Shkola.sovremennoj.p'esy.2014.XviD.SATRip.fenixclub.2.avi
Format : AVI
Format/Info : Audio Video Interleave
File size : 1.22 GiB
Duration : 1h 52mn
Overall bit rate : 1 553 Kbps
Writing application : VirtualDubModRus 1.5.10.2 (build 2542/release)
Writing library : VirtualDub build 32842/release
Video
ID : 0
Format : MPEG-4 Visual
Format profile : Advanced Simple@L5
Format settings, BVOP : 2
Format settings, QPel : No
Format settings, GMC : No warppoints
Format settings, Matrix : Default (H.263)
Muxing mode : Packed bitstream
Codec ID : XVID
Codec ID/Hint : XviD
Duration : 1h 52mn
Bit rate : 1 415 Kbps
Width : 720 pixels
Height : 400 pixels
Display aspect ratio : 16:9
Frame rate : 25.000 fps
Color space : YUV
Chroma subsampling : 4:2:0
Bit depth : 8 bits
Scan type : Progressive
Compression mode : Lossy
Bits/(Pixel*Frame) : 0.197
Stream size : 1.11 GiB (91%)
Writing library : XviD 73
Audio
ID : 1
Format : MPEG Audio
Format version : Version 1
Format profile : Layer 3
Mode : Joint stereo
Mode extension : MS Stereo
Codec ID : 55
Codec ID/Hint : MP3
Duration : 1h 52mn
Bit rate mode : Constant
Bit rate : 128 Kbps
Channel(s) : 2 channels
Sampling rate : 44.1 KHz
Compression mode : Lossy
Stream size : 103 MiB (8%)
Alignment : Split accross interleaves
Interleave, duration : 40 ms (1.00 video frame)
Interleave, preload duratio : 500 ms
Writing library : LAME3.98.2

Скриншоты


Альтернативный хост





Показать сообщения:    

Текущее время: 11-Дек 11:08

Часовой пояс: UTC + 3


Вы не можете начинать темы
Вы не можете отвечать на сообщения
Вы не можете редактировать свои сообщения
Вы не можете удалять свои сообщения
Вы не можете голосовать в опросах
Вы не можете прикреплять файлы к сообщениям
Вы не можете скачивать файлы