Везде один... Свеча на ветру (Михаил Резникович, Дмитрий Морозов) [2014 г., Украина, Сценическая композиция, SATRip] Национальный академический театр русской драмы им. Леси Украинки


 

[Цитировать]

Везде один... Свеча на ветру Название театра: Национальный академический театр русской драмы им. Леси Украинки.
Год выпуска: 2014.
Страна: Украина .
Жанр: Сценическая композиция.
Продолжительность: 01:28:27.
Язык: Русский.
Режиссёры: народный артист Украины, заслуженный деятель искусств России Михаил Резникович, народная артистка Украины Ирина Дука, Александр Башкиров.
Действующие лица и исполнители:
От имени Тараса Шевченко - Петр Панчук (НАТ им. И. Франко), Дмитрий Савченко,
Комментаторы - Станислав Бобко, Юрий Дяк, Виталий Овчаров, Андрей Пономаренко, Олег Савкин,
Исполнители зонгов - Таисия Бойко, Ирина Борщевская, Валерий Величко, Анна Гринчак, Александра Ена, Виктория Жилинская, Вячеслав Николенко, Ирина Новак, Алексей Полищук, Владимир Ращук, Петр Сова,
Эпизод «Гоголь» - Михаил Аугуст, Олег Замятин, Наталья Ковязина, Ольга Когут, Виктор Кошель, Анна Наталушко, Татьяна Остапенко, Олег Роенко, Любовь Солодова, Елена Стефанская, Александр Хорошко, Василий Юрченко,
Эпизод «Беранже» - Олег Замятин, Александр Хорошко, Таисия Бойко, Виктор Кошель, Сергей Озиряный, Виктор Семирозуменко, Юлия Смушкова, Елена Тополь, Алиса Тункевич, Яна Тутутченко.
О спектакле:
Щедрая и неисчерпаемо плодородная украинская земля подарила общечеловеческому созвездию гениев неугасаемый Светоч - Тараса Шевченко, Тираноборца и Пророка, глашатая свободы, который поставил на страже у своих земляков, "рабов немых", огненное слово, а в "Завещании" дал им призыв: "Кандалы порвите!".
Немногие из тех, кому выпало бессмертие, достигли его такой дорогой ценой, как Тарас Шевченко. Судьба не жалела для него жесточайших испытаний и страданий. Прожил Шевченко лишь 47 лет, из них двадцать пять - в крепостном рабстве, десять - в солдатчине и ссылке. А оставшиеся - воюя с лишениями, болезнями, лелея несбывшуюся мечту о создание семейного очага, элементарного уюта в собственном доме - маленькой хатке на родине.
В нынешней театральной трактовке, вопреки многолетним хрестоматийным, заезженным декларациям и представлениям, гармонично переплетаются многие мотивы жизни Поэта и Художника: творчество, любовь, разочарование, раскаяние, ненависть, недоумение, известность и забвение, стремление постичь всё и вся ...
«…Спектакль о судьбе талантливого человека, попавшего под жернова системы. С одной стороны, она выковала его талант, с другой – исковеркала его жизнь. Это и Шевченко, и не Шевченко, не только Шевченко.
В основе - все тексты, все стихотворения Т. Г. Шевченко и воспоминания о нем. Но он был очень разным. И слабым, и сильным, и добрым, и несправедливым.
Мы взяли лишь одну составляющую его личности, прежде всего, дарования, поэтому трудно настаивать на полной правдивой идентичности характера. Это, скорее, легенда о Шевченко. Хотя и основанная на фактах его жизни.
Легенда об очень талантливом человеке, жизнь которого была разрушена системой. Он много знал, остро чувствовал и заслуживал большего человеческого счастья, но не сбылось.
…У каждого свой Шевченко, как и у каждого - свой Пушкин. У нас – ТАКОЙ!..»
(М. Резникович)

Дополнительная информация:
Выпущено: Национальный академический русской драмы им. Леси Украинки, ТРК "Золотые ворота".
Постановка: народный артист Украины, заслуженный деятель искусств России Михаил Резникович.
Режиссёр: Дмитрий Морозов.
Автор: Тарас Шевченко.
Сценография, костюмы: Елена Дробная.
Композитор: Александр Шимко.
Балетмейстеры: Ольга Голдис, Максим Пекний.
Видеопроекция: Алексей Рабин, Андрей Рябин.
Редактура текста: Татьяна Моцарь.
Премьера спектакля состоялась 9 марта 2014 года.

О спектакле.
Релиз
Рип sharky.

Качество видео:...SATRip
Формат:.................AVI
Видео:..704x400 (1.76:1), 25 fps, XviD build 50 ~1562 kbps avg, 0.22 bit/pixel
Аудио:..48 kHz, AC3 Dolby Digital, 2/0 (L,R) ch, ~192 kbps

Отчет MediaInfo

Общее
Полное имя : Vezde.odin.Sve4a.na.vetru_NDATR.im.Lesi.Ukrainki.2014.XviD.TVRip.fenixclub.avi
Format : AVI
Format/Info : Audio Video Interleave
File size : 1.09 GiB
Duration : 1h 28mn
Overall bit rate : 1 765 Kbps
Writing application : VirtualDubMod 1.5.10.3 | www.virtualdub-fr.org || (build 2550/release)
Writing library : VirtualDubMod build 2550/release
Video
ID : 0
Format : MPEG-4 Visual
Format profile : Advanced Simple@L5
Format settings, BVOP : 1
Format settings, QPel : No
Format settings, GMC : No warppoints
Format settings, Matrix : Default (H.263)
Codec ID : XVID
Codec ID/Hint : XviD
Duration : 1h 28mn
Bit rate : 1 563 Kbps
Width : 704 pixels
Height : 400 pixels
Display aspect ratio : 16:9
Frame rate : 25.000 fps
Color space : YUV
Chroma subsampling : 4:2:0
Bit depth : 8 bits
Scan type : Progressive
Compression mode : Lossy
Bits/(Pixel*Frame) : 0.222
Stream size : 989 MiB (89%)
Writing library : XviD 1.2.1 (UTC 2008-12-04)
Audio
ID : 1
Format : AC-3
Format/Info : Audio Coding 3
Mode extension : CM (complete main)
Format settings, Endianness : Big
Codec ID : 2000
Duration : 1h 28mn
Bit rate mode : Constant
Bit rate : 192 Kbps
Channel(s) : 2 channels
Channel positions : Front: L R
Sampling rate : 48.0 KHz
Bit depth : 16 bits
Compression mode : Lossy
Stream size : 121 MiB (11%)
Alignment : Split accross interleaves
Interleave, duration : 40 ms (1.00 video frame)
Interleave, preload duratio : 500 ms.

Скриншоты


Альтернативный хост





Показать сообщения:    

Текущее время: 10-Дек 17:49

Часовой пояс: UTC + 3


Вы не можете начинать темы
Вы не можете отвечать на сообщения
Вы не можете редактировать свои сообщения
Вы не можете удалять свои сообщения
Вы не можете голосовать в опросах
Вы не можете прикреплять файлы к сообщениям
Вы не можете скачивать файлы