Аленький цветочек (Тереза Дурова) [2013, сказка, мюзикл, SATRip] «Театриум на Серпуховке»


 

[Цитировать]

Аленький цветочек Название театра: «Театриум на Серпуховке».
Год выпуска: 2013.
Жанр: сказка, мюзикл.
Продолжительность: 01:25:40.
Режиссеры: народная артистка России Тереза Дурова, Владимир Ананьев, Елена Черняк.
Действующие лица и исполнители:
Купец - Сергей Дик,
Анна, старшая дочь - Анастасия Тюкова,
Аглая, средняя дочь - Татьяна Михайлюк,
Аленушка, младшая дочь - Анна Олейникова,
Няня - Юлия Юнушева,
Прохор, помощник купца - Владимир Седлецкий,
Митроха, друг Аленушки - Михаил Маневич,
Тимоха, друг Аленушки - Арсений Краковский,
Ведьма первая - Ольга Сидоркевич,
Ведьма вторая - Дарья Коршунова,
Ведьма третья - Виолетта Бучинская,
Чудище - Евгений Мишечкин,
Сирины - Георгий Сукосян, Александра Уткина, Дарья Коршунова,
Продавец драгоценностей - Борис Рывкин,
Продавец цветов - Петр Королев,
Продавец ножей - Константин Лещенко,
Продавец сладостей - Николай Зверев,
Продавец арбузов - Геннадий Краковский,
Продавщица корзин - Андриана Садковская,
Продавщица посуды - Юлия Андриянова,
Рыбачка - Анна Прокопьева,
Факир - Мамука Заркуа,
Восточная красавица - Александра Скоринова.
О спектакле:
Большой корабль, снаряженный для заморской торговли; манящий и шумный восточный базар, где расхаживают слоны и встречаются колдуньи; буря, вздыбившая морскую гладь; богатые купеческие хоромы; и конечно, остров, где живет одинокое чудовище, которое превращается в прекрасного юношу. Все это - спектакль "Аленький цветочек", в котором побеждает любовь.
Дополнительная информация:
Страна: Россия .
Выпущено: © АНО "Общественное телевидение России".
Автор: Сергей Аксаков.
Автор пьесы: Артем Абрамов.
Композитор: народный артист России Максим Дунаевский.
Текст песен: Андрей Усачёв.
Режиссёр-постановщик: народная артистка России Тереза Дурова.
Режиссёры: Владимир Ананьев, Галина Дубовская.
Музыкальный руководитель, аранжировка: Максим Гуткин.
Концертмейстер: Ольга Яковлева.
Художник-постановщик: народный художник России Мария Рыбасова.
Художники по костюмам: заслуженный художник России Виктория Севрюкова, Ольга Резниченко.
Хореограф-постановщик: Артур Ощепков.
Художник по свету: заслуженный работник культуры России Андрей Изотов.
Художественный руководитель «Театриума на Серпуховке»: народная артистка России Тереза Дурова.
Премьера спектакля состоялась 22 декабря 2012 года.
Режиссер телеверсии: Елена Черняк.
Оператор-постановщик: Игорь Хорев.
Оркестр:
Дирижёр
- Максим Гуткин,
Синтезатор - Ольга Яковлева,
Кларнет, саксофон – Сергей Ирьянов, Кочар Темирджанов,
Саксофон сопрано, баритон – Игорь Гуревич, Тарас Тихонов,
Домра, мандолина – Юрий Чевин,
Бас-гитара, контрабас – Евгений Козлов,
Гитара – Лев Успенский,
Виолончель – Михаил Звоников, Михаил Бобров,
Ударные инструменты – Павел Демидов, Андрей Волосовский,
Труба – Вадим Шарапов,
Этническая перкуссия – Владимир Глушко.

О спектакле.
Релиз

Качество видео:...SATRip
Формат:.................AVI
Видео:..720x416 (1.73:1), 25 fps, XviD MPEG-4 ~2293 kbps avg, 0.31 bit/pixel
Аудио:..48 kHz, MPEG Layer 3, 2 ch, ~128.00 kbps avg

Отчет Media Info

General
Complete name : Alenkij.сvetochek_Teatrium.na.Serpukhovke.2013.XviD.SATRip.fenixclub.avi
Format : AVI
Format/Info : Audio Video Interleave
File size : 1.46 GiB
Duration : 1h 25mn
Overall bit rate : 2 432 Kbps
Writing application : VirtualDubModRus 1.5.10.2 (build 2542/release)
Writing library : VirtualDub build 32842/release
Video
ID : 0
Format : MPEG-4 Visual
Format profile : Advanced Simple@L5
Format settings, BVOP : 2
Format settings, QPel : No
Format settings, GMC : No warppoints
Format settings, Matrix : Default (H.263)
Muxing mode : Packed bitstream
Codec ID : XVID
Codec ID/Hint : XviD
Duration : 1h 25mn
Bit rate : 2 294 Kbps
Width : 720 pixels
Height : 416 pixels
Display aspect ratio : 1.731
Frame rate : 25.000 fps
Color space : YUV
Chroma subsampling : 4:2:0
Bit depth : 8 bits
Scan type : Progressive
Compression mode : Lossy
Bits/(Pixel*Frame) : 0.306
Stream size : 1.37 GiB (94%)
Writing library : XviD 73
Audio
ID : 1
Format : MPEG Audio
Format version : Version 1
Format profile : Layer 3
Mode : Joint stereo
Mode extension : MS Stereo
Codec ID : 55
Codec ID/Hint : MP3
Duration : 1h 25mn
Bit rate mode : Constant
Bit rate : 128 Kbps
Channel(s) : 2 channels
Sampling rate : 48.0 KHz
Compression mode : Lossy
Stream size : 78.4 MiB (5%)
Alignment : Split accross interleaves
Interleave, duration : 40 ms (1.00 video frame)
Interleave, preload duratio : 500 ms.

Скриншоты

Альтернативный хост




Показать сообщения:    

Текущее время: 05-Дек 01:24

Часовой пояс: UTC + 3


Вы не можете начинать темы
Вы не можете отвечать на сообщения
Вы не можете редактировать свои сообщения
Вы не можете удалять свои сообщения
Вы не можете голосовать в опросах
Вы не можете прикреплять файлы к сообщениям
Вы не можете скачивать файлы