Клоун Лоретти и улыбка (Яна Друзь) [1991 г., сказка, фильм-спектакль, SATRip] Театр кукол Латвийской республики


 

[Цитировать]

Клоун Лоретти и улыбка Название театра: Театр кукол Латвийской республики.
Год выпуска: 1991.
Жанр: сказка, фильм-спектакль.
Продолжительность: 00:45:18.
Режиссер: Яна Друзь.
Действующие лица и исполнители:
Клоун Лоретти - Михаил Карасиков,
Мыцык - Татьяна Хитаришвили,
Кыцык - Ольга Ларина, Надежда Бахвалова.
Роли озвучивали: Александр Леньков, Мария Виноградова, Светлана Травкина.
Описание:
Герой спектакля - клоун Лоретти весел лишь на арене, а в жизни его история грустна - он одинок.
Ничто не нарушает его одиночества, только изредка раздается какой-то подозрительный скреб...

Дополнительная информация:
Страна: СССР .
Выпущено: Студия "Юнтелефильм", ТПО "Союзтелефильм.
Оператор: Евгений Павлов.
Композитор: Ивар Вигнер.
Художник: Юрий Зеленов.

Релиз

Качество видео:...SATRip
Формат:.................AVI
Видео:..720x544 (1.32:1), 25 fps, DivX Codec 6.8.3 ~2155 kbps avg, 0.22 bit/pixel
Аудио:..48 kHz, MPEG Layer 3, 2 ch, ~128.00 kbps avg

Отчет MI

General
Complete name : Kloun.Loretti.i.ulybka_Latvijskij.teatr.kukol.1991.DivX.TVRip.fenixclub.avi
Format : AVI
Format/Info : Audio Video Interleave
File size : 743 MiB
Duration : 45mn 18s
Overall bit rate : 2 294 Kbps
Writing application : VirtualDubModRus 1.5.10.2 (build 2542/release)
Writing library : VirtualDub build 32842/release
Video
ID : 0
Format : MPEG-4 Visual
Format settings, BVOP : 1
Format settings, QPel : No
Format settings, GMC : No warppoints
Format settings, Matrix : Default (H.263)
Muxing mode : Packed bitstream
Codec ID : DX50
Codec ID/Hint : DivX 5
Duration : 45mn 18s
Bit rate : 2 156 Kbps
Width : 720 pixels
Height : 544 pixels
Display aspect ratio : 4:3
Frame rate : 25.000 fps
Color space : YUV
Chroma subsampling : 4:2:0
Bit depth : 8 bits
Scan type : Progressive
Compression mode : Lossy
Bits/(Pixel*Frame) : 0.220
Stream size : 699 MiB (94%)
Writing library : DivX 6.8.3-6.8.4 (UTC 2008-06-07)
Audio
ID : 1
Format : MPEG Audio
Format version : Version 1
Format profile : Layer 3
Mode : Joint stereo
Mode extension : MS Stereo
Codec ID : 55
Codec ID/Hint : MP3
Duration : 45mn 18s
Bit rate mode : Constant
Bit rate : 128 Kbps
Channel(s) : 2 channels
Sampling rate : 48.0 KHz
Compression mode : Lossy
Stream size : 41.5 MiB (6%)
Alignment : Split accross interleaves
Interleave, duration : 40 ms (1.00 video frame)
Interleave, preload duratio : 500 ms.

Скриншоты

Альтернативный хост




Показать сообщения:    

Текущее время: 08-Дек 17:22

Часовой пояс: UTC + 3


Вы не можете начинать темы
Вы не можете отвечать на сообщения
Вы не можете редактировать свои сообщения
Вы не можете удалять свои сообщения
Вы не можете голосовать в опросах
Вы не можете прикреплять файлы к сообщениям
Вы не можете скачивать файлы