Афродита (Юлия Беляева) [2014 г., Драма, экранизация, SATRip] Московский драматический театр "Сфера"


 

[Цитировать]

Афродита Название театра: Московский драматический театр "Сфера".
Год выпуска: 2014.
Жанр: Драма, экранизация.
Продолжительность: 02:01:52.
Режиссеры: Юлия Беляева, Александр Сычев.
Действующие лица и исполнители:
Первый акт "Фро":
Фро - Ольга Аксенова,
Федор - Денис Береснев,
Нефед Степанович - заслуженный артист России Вадим Борисов,
Наташа - Нелли Шмелева,
Кавалер - Александр Чекалин,
Невеста Кавалера - Евгения Казарина,
Прораб - Павел Гребенников,
Дворник - Екатерина Давыдова-Тонгур,
Второй акт "Афродита":
Афродита - Евгения Казарина,
Назар - Павел Гребенников,
Юрод - Александр Чекалин.
О спектакле:
Спектакль по рассказам Андрея Платонова "Фро" и "Афродита".
Это история о любви и надежде, о готовности ждать бесконечно и сопротивляться душевной тоске. "Фро" и "Афродита" два рассказа о женщинах и мужчинах, заключенных в рамки внешних обстоятельств, обреченных жить по законам системы, но не потерявших способность любить и чувствовать. Рассказы во многом автобиографичные, интимные. Очень разные по настроению, оба рассказа - о вере, часто единственной вещи, спасающей человека от уныния и пустоты.

Дополнительная информация:
Страна: Россия .
Выпущено: © Компания "ЛОНГ-Фильм", © по заказу Правительства Москвы.
Инсценировка и постановка спектакля: Юлия Беляева.
Автор: Андрей Платонов.
Художник-постановщик: Александра Ефимова.
Хореограф-постановщик: Маргарита Журавская.
Композитор и музыкальное решение: Николай Бабич.
Художественный руководитель театра: народный артист России Николай Коршунов.
Создатель Московского драматического театра "Сфера": народная артистка России
Екатерина Ильинична Еланская
.
Режиссёр-постановщик телеверсии: Александр Сычев.
Оператор-постановщик: Олег Пикалев.

О спектакле.

Еще постер

Релиз

Качество видео:...SATRip
Формат:.................AVI
Видео:..720x400 (1.80:1), 25 fps, XviD MPEG-4 ~1558 kbps avg, 0.22 bit/pixel
Аудио:..44.100 kHz, MPEG Layer 3, 2 ch, ~128.00 kbps avg

Отчет MI

General
Complete name : Afrodita_Moskovskij.DT.Sfera.2014.XviD.SATRip.fenixclub.avi
Format : AVI
Format/Info : Audio Video Interleave
File size : 1.44 GiB
Duration : 2h 1mn
Overall bit rate : 1 697 Kbps
Writing application : VirtualDubModRus 1.5.10.2 (build 2542/release)
Writing library : VirtualDub build 32842/release
Video
ID : 0
Format : MPEG-4 Visual
Format profile : Advanced Simple@L5
Format settings, BVOP : 2
Format settings, QPel : No
Format settings, GMC : No warppoints
Format settings, Matrix : Default (H.263)
Muxing mode : Packed bitstream
Codec ID : XVID
Codec ID/Hint : XviD
Duration : 2h 1mn
Bit rate : 1 559 Kbps
Width : 720 pixels
Height : 400 pixels
Display aspect ratio : 16:9
Frame rate : 25.000 fps
Color space : YUV
Chroma subsampling : 4:2:0
Bit depth : 8 bits
Scan type : Progressive
Compression mode : Lossy
Bits/(Pixel*Frame) : 0.217
Stream size : 1.33 GiB (92%)
Writing library : XviD 73
Audio
ID : 1
Format : MPEG Audio
Format version : Version 1
Format profile : Layer 3
Mode : Joint stereo
Mode extension : MS Stereo
Codec ID : 55
Codec ID/Hint : MP3
Duration : 2h 1mn
Bit rate mode : Constant
Bit rate : 128 Kbps
Channel(s) : 2 channels
Sampling rate : 44.1 KHz
Compression mode : Lossy
Stream size : 112 MiB (8%)
Alignment : Split accross interleaves
Interleave, duration : 40 ms (1.00 video frame)
Interleave, preload duratio : 500 ms
Writing library : LAME3.98.2

Скриншоты


Альтернативный хост





Показать сообщения:    

Текущее время: 09-Дек 12:41

Часовой пояс: UTC + 3


Вы не можете начинать темы
Вы не можете отвечать на сообщения
Вы не можете редактировать свои сообщения
Вы не можете удалять свои сообщения
Вы не можете голосовать в опросах
Вы не можете прикреплять файлы к сообщениям
Вы не можете скачивать файлы