Сказки ученого кота (Алексей Кирющенко, Лариса Крупина) [2014 г., сказка, SATRip] Московский драматический театр под руководством Армена Джигарханяна


 

[Цитировать]

Сказки ученого кота Название театра: Московский драматический театр под руководством Армена Джигарханяна.
Год выпуска: 2014.
Жанр: сказка.
Продолжительность: 00:58:58.
Режиссеры: Алексей Кирющенко, Лариса Крупина, Ольга Музалева.
Действующие лица и исполнители:
Кот - Сахат Дурсунов,
Балда - Михаил Железнов,
Баба Яга - Дана Назарова,
Леший - Кирилл Анисимов,
Кащей - Алексей Лапшин,
Поп - народный артист Удмуртии Анатолий Морозов,
Попадья - Оксана Голубева,
Поповна - Надежда Селиванова,
Попенок - Юрий Ларев,
Старый бес - Денис Надточий,
Первый черт - Александр Пурис,
Второй черт - Ибрагим Гагиев,
Заяц - Ульяна Чилиндина.
Спектакль ведут: Любовь Бороздина, Екатерина Горбенко.
О спектакле:
Спектакль с народными песнями, остроумными шутками и зажигательными танцами. Четверка ведущих: Кот Ученый, Кащей, Баба Яга и Леший, – рассказывают историю Попа и его работника Балды.
Дополнительная информация:
Страна: Россия .
Выпущено: © "Студия 2В", © по заказу Правительства Москвы.
Автор: Александр Пушкин.
Автор пьесы: Родион Овчинников.
Режиссер-постановщик спектакля: Алексей Кирющенко.
Режиссер, ведущий спектакль: Лариса Крупина.
Сценография и костюмы: Анастасия Глебова.
Компизитор-аранжировщик: Дмитрий Даньков.
В спектакле использованы музыкальные произведения: сборная музыка и звуковое оформление - Д. Даньков, "Полет шмеля" (Николай Римский-Корсаков), "Пчелочка златая" (донская казачья песня).
Художественный руководитель театра: народный артист СССР Армен Джигарханян.
Премьера спектакля состоялась: 16 октября 1999 года.
Режиссер телеверсии: Ольга Музалева.
Главный оператор-постановщик: Алексей Рыбаков.

О спектакле.
Релиз

Качество видео:...SATRip
Формат:.................AVI
Видео:..720x400 (1.80:1), 25 fps, XviD MPEG-4 ~1619 kbps avg, 0.23 bit/pixel
Аудио:..44.100 kHz, MPEG Layer 3, 2 ch, ~128.00 kbps avg

Отчет MI

Общее
Полное имя : Skazki.uchenogo.kota_Moskovskij.DT.Dzhigarhanyana.2014.XviD.SATRip.fenuxclub.avi
Format : AVI
Format/Info : Audio Video Interleave
File size : 741 MiB
Duration : 58mn 58s
Overall bit rate : 1 757 Kbps
Writing application : VirtualDubModRus 1.5.10.2 (build 2542/release)
Writing library : VirtualDub build 32842/release
Video
ID : 0
Format : MPEG-4 Visual
Format profile : Advanced Simple@L5
Format settings, BVOP : 2
Format settings, QPel : No
Format settings, GMC : No warppoints
Format settings, Matrix : Default (H.263)
Muxing mode : Packed bitstream
Codec ID : XVID
Codec ID/Hint : XviD
Duration : 58mn 58s
Bit rate : 1 619 Kbps
Width : 720 pixels
Height : 400 pixels
Display aspect ratio : 16:9
Frame rate : 25.000 fps
Color space : YUV
Chroma subsampling : 4:2:0
Bit depth : 8 bits
Scan type : Progressive
Compression mode : Lossy
Bits/(Pixel*Frame) : 0.225
Stream size : 683 MiB (92%)
Writing library : XviD 73
Audio
ID : 1
Format : MPEG Audio
Format version : Version 1
Format profile : Layer 3
Mode : Joint stereo
Mode extension : MS Stereo
Codec ID : 55
Codec ID/Hint : MP3
Duration : 58mn 58s
Bit rate mode : Constant
Bit rate : 128 Kbps
Channel(s) : 2 channels
Sampling rate : 44.1 KHz
Compression mode : Lossy
Stream size : 54.0 MiB (7%)
Alignment : Split accross interleaves
Interleave, duration : 40 ms (1.00 video frame)
Interleave, preload duratio : 500 ms
Writing library : LAME3.98.2

Скриншоты

Альтернативный хост




Показать сообщения:    

Текущее время: 08-Дек 19:01

Часовой пояс: UTC + 3


Вы не можете начинать темы
Вы не можете отвечать на сообщения
Вы не можете редактировать свои сообщения
Вы не можете удалять свои сообщения
Вы не можете голосовать в опросах
Вы не можете прикреплять файлы к сообщениям
Вы не можете скачивать файлы