Последний срок (Владимир Симоновский) [1981 г., драма, SATRip] Омский академический драматический театр


 

[Цитировать]

Последний срок Название театра: Омский академический драматический театр.
[coloПоследний срок (Владимир Симоновский) [1981 г., драма, SATRip] Омский академический драматический театрr=darkblue]Год выпуска: 1981.
Жанр: драма.
Продолжительность: 02:09:07.
Режиссеры: Владимир Симоновский, Надежда Марусалова.
Действующие лица и исполнители:
Старуха Анна - народная артистка РСФСР Елена Псарева,
Михаил - заслуженный артист РСФСР Николай Бабенко,
Варвара - Елизавета Романенко,
Илья - Юрий Музыченко,
Люся - Вера Канунникова,
Таньчора - Любовь Трандина,
Надя - Элеонора Кремель,
Мирониха - заслуженная артистка РСФСР Надежда Надеждина,
Харчевников - Валерий Алексеев.
О спектакле:
По одноименной повести Валентина Распутина.
У старухи Анны отказали ноги. Она оповещает детей о своей скорой смерти и просит всех собраться. Из ближайшего райцентра приезжают сын Илья и дочь Людмила, приходят проживающие в одной деревне с матерью сын Михаил с женой и дочь Варвара. Старуха лежит без движения и не подает признаков жизни, дети готовятся к поминкам. И вдруг старуху отпускает. Она возвращается к жизни и даже сама выходит посидеть на крыльцо. Дочери суетятся возле матери, кормят и ухаживают за ней. Навестить подругу приходит соседка Мирониха. Тягостное ожидание сменяется облегчением. Жизнь продолжается. Обрадованные братья Михаил и Илья на радостях напиваются купленной для поминок водкой.

Дополнительная информация:
Страна: СССР .
Автор: Валентин Распутин.
Режиссер-постановщик спектакля: Владимир Симоновский.
Режиссер телеверсии: Надежда Марусалова.
Оператор-постановщик: Борис Рогожин.
Художник-постановщик: Ольга Лёвина.

Релиз

Качество видео:...SATRip
Формат:.................AVI
Видео:..720x544 (1.32:1), 25 fps, XviD MPEG-4 ~1383 kbps avg, 0.14 bit/pixel
Аудио:..48 kHz, MPEG Layer 3, 2 ch, ~128.00 kbps avg

Отчет MI

Общее
Полное имя : Poslednij.srok_Omskij.akademicheskij.DT.1981.XviD.SATRip.fenixclub.avi
Format : AVI
Format/Info : Audio Video Interleave
File size : 1.37 GiB
Duration : 2h 9mn
Overall bit rate : 1 522 Kbps
Writing application : VirtualDubModRus 1.5.10.2 (build 2542/release)
Writing library : VirtualDub build 32842/release
Video
ID : 0
Format : MPEG-4 Visual
Format profile : Advanced Simple@L5
Format settings, BVOP : 2
Format settings, QPel : No
Format settings, GMC : No warppoints
Format settings, Matrix : Default (H.263)
Muxing mode : Packed bitstream
Codec ID : XVID
Codec ID/Hint : XviD
Duration : 2h 9mn
Bit rate : 1 384 Kbps
Width : 720 pixels
Height : 544 pixels
Display aspect ratio : 4:3
Frame rate : 25.000 fps
Color space : YUV
Chroma subsampling : 4:2:0
Bit depth : 8 bits
Scan type : Progressive
Compression mode : Lossy
Bits/(Pixel*Frame) : 0.141
Stream size : 1.25 GiB (91%)
Writing library : XviD 73
Audio
ID : 1
Format : MPEG Audio
Format version : Version 1
Format profile : Layer 3
Mode : Joint stereo
Mode extension : MS Stereo
Codec ID : 55
Codec ID/Hint : MP3
Duration : 2h 9mn
Bit rate mode : Constant
Bit rate : 128 Kbps
Channel(s) : 2 channels
Sampling rate : 48.0 KHz
Compression mode : Lossy
Stream size : 118 MiB (8%)
Alignment : Split accross interleaves
Interleave, duration : 40 ms (1.00 video frame)
Interleave, preload duratio : 500 ms
Writing library : LAME3.98.2

Скриншоты

Альтернативный хост




Показать сообщения:    

Текущее время: 05-Дек 23:33

Часовой пояс: UTC + 3


Вы не можете начинать темы
Вы не можете отвечать на сообщения
Вы не можете редактировать свои сообщения
Вы не можете удалять свои сообщения
Вы не можете голосовать в опросах
Вы не можете прикреплять файлы к сообщениям
Вы не можете скачивать файлы