Девичник club (Роман Козак, Надежда Аракчеева) [2014 г., комедия, SATRip] Московский драматический театр имени А.С.Пушкина


 

[Цитировать]

Девичник club Название театра: Московский драматический театр имени А.С.Пушкина.
Жанр: комедия.
Год выпуска: 2014.
Продолжительность: 02:21:16.
Режиссеры: заслуженный артист России, заслуженный деятель искусств России Роман Козак, Надежда Аракчеева, Алексей Шлянин.
Действующие лица и исполнители:
Люсиль - народная артистка России Вера Алентова,
Ида - народная артистка России Мария Аронова,
Дорис - народная артистка России Лариса Голубкина,
Сэм - заслуженный артист России Борис Дьяченко,
Милдред - Екатерина Сибирякова.
Описание:
После почти одновременной смерти мужей три верные вдовы создают собственный клуб, заседания которого традиционно проходят на кладбище у могил их благоверных. Проходит немало лет, но один раз в месяц они все так же продолжают ходить на кладбище. Правда, с годами эти ритуальные посиделки приобретают прямо-таки трагикомический характер. Ни одна из этих очень разных по характеру, образу жизни, воспитанию дам не вышла замуж второй раз, и женское трио стало почти одной семьей. И тут разразился скандал... Одна из подруг решила-таки выйти из клуба, начать, наконец, жить не прошлым, а настоящим, а то и, страшно сказать, снова выйти замуж! У оставшихся в клубе дам на этот счет свое мнение. Они вовсе не намерены сидеть сложа руки и ждать когда распадется вдовий клуб…
Дополнительная информация:
Страна: Россия .
Выпущено: Московский драматический театр имени А.С.Пушкина, © Кинокомпания "ВиргоС", © по заказу Правительства Москвы.
Автор: Айвон Менчелл.
Перевод: Михаил Барский.
Художник-постановщик: Игорь Попов.
Художник по костюмам: Светлана Синицына.
Художник по свету: заслуженный деятель искусств России Дамир Исмагилов.
В спектакле звучит музыка Джона Вильямса Голдсмита.
Художественный руководитель театра: заслуженный артист России Евгений Писарев.
Режиссёр телеверсии: Алексей Шлянин.
Оператор-постановщик: Виталий Токарев.

О спектакле.
Релиз

Качество: SATRip
Формат: AVI
Видео:..720x416 (1.73:1), 25 fps, XviD MPEG-4 ~1344 kbps avg, 0.18 bit/pixel
Аудио:..44.100 kHz, MPEG Layer 3, 2 ch, ~128.00 kbps avg

Отчет Media Info

Общее
Полное имя : Devichnik.Club_Moskovskij.DT.im.Pushkina.2014.XviD.SATRip.fenixclub.avi
Format : AVI
Format/Info : Audio Video Interleave
File size : 1.46 GiB
Duration : 2h 21mn
Overall bit rate : 1 483 Kbps
Writing application : VirtualDubModRus 1.5.10.2 (build 2542/release)
Writing library : VirtualDub build 32842/release
Video
ID : 0
Format : MPEG-4 Visual
Format profile : Advanced Simple@L5
Format settings, BVOP : 2
Format settings, QPel : No
Format settings, GMC : No warppoints
Format settings, Matrix : Default (H.263)
Muxing mode : Packed bitstream
Codec ID : XVID
Codec ID/Hint : XviD
Duration : 2h 21mn
Bit rate : 1 345 Kbps
Width : 720 pixels
Height : 416 pixels
Display aspect ratio : 1.731
Frame rate : 25.000 fps
Color space : YUV
Chroma subsampling : 4:2:0
Bit depth : 8 bits
Scan type : Progressive
Compression mode : Lossy
Bits/(Pixel*Frame) : 0.180
Stream size : 1.33 GiB (91%)
Writing library : XviD 73
Audio
ID : 1
Format : MPEG Audio
Format version : Version 1
Format profile : Layer 3
Mode : Joint stereo
Mode extension : MS Stereo
Codec ID : 55
Codec ID/Hint : MP3
Duration : 2h 21mn
Bit rate mode : Constant
Bit rate : 128 Kbps
Channel(s) : 2 channels
Sampling rate : 44.1 KHz
Compression mode : Lossy
Stream size : 129 MiB (9%)
Alignment : Split accross interleaves
Interleave, duration : 40 ms (1.00 video frame)
Interleave, preload duratio : 500 ms
Writing library : LAME3.98.2

Скриншоты


Альтернативный хост





Показать сообщения:    

Текущее время: 02-Дек 21:14

Часовой пояс: UTC + 3


Вы не можете начинать темы
Вы не можете отвечать на сообщения
Вы не можете редактировать свои сообщения
Вы не можете удалять свои сообщения
Вы не можете голосовать в опросах
Вы не можете прикреплять файлы к сообщениям
Вы не можете скачивать файлы