Барабанщик, который ничего не боялся (Михаил Фалкин) [1988, Сказка, WEB-DLRip]


 

[Цитировать]

Барабанщик, который ничего не боялся
Жанр: Сказка
Год выпуска: 1988
Продолжительность: 00:39:42
Режиссёр: Михаил Фалкин
В ролях: Елена Антонова, Юрий Карпенко, Кира Крейлис-Петрова, Юрий Оленников, Александр Чурсин
Описание: По мотивам сказок братьев Гримм.
Солнце светит, птицы поют, цветы, ягоды... Хорошо! А вот Барабанщик, который ничего не боялся, оказался в другом лесу, где солнца нет, лишь туман да тьма, а вместо птиц - привидения порхают, нечистая сила нечеловеческим голосом кричит! Ведьмы преследуют, великаны растоптать норовят, дракон съесть намеревается. Невесту Барабанщика здесь в кукушку превратили! Другой бежал бы от таких напастей, а Барабанщик - нет. Он добился всего, чего хотел...
Качество видео: WEB-DLRip
Формат видео: AVI
Видео: Xvid 704x544 25fps 1498kbps
Аудио: MP3 48000Hz stereo 121kbps

MediaInfo

General
Complete name : C:\Users\VesnaWindows\Desktop\Барабанщик, который ничего не боялся.avi
Format : AVI
Format/Info : Audio Video Interleave
File size : 463 MiB
Duration : 39mn 41s
Overall bit rate mode : Variable
Overall bit rate : 1 632 Kbps
Writing library : VirtualDub build 35491/release
Video
ID : 0
Format : MPEG-4 Visual
Format profile : Advanced Simple@L5
Format settings, BVOP : 1
Format settings, QPel : No
Format settings, GMC : No warppoints
Format settings, Matrix : Default (H.263)
Muxing mode : Packed bitstream
Codec ID : XVID
Codec ID/Hint : XviD
Duration : 39mn 41s
Bit rate : 1 498 Kbps
Width : 704 pixels
Height : 544 pixels
Display aspect ratio : 1.294
Frame rate : 25.000 fps
Color space : YUV
Chroma subsampling : 4:2:0
Bit depth : 8 bits
Scan type : Progressive
Compression mode : Lossy
Bits/(Pixel*Frame) : 0.156
Stream size : 425 MiB (92%)
Writing library : XviD 1.2.1 (UTC 2008-12-04)
Audio
ID : 1
Format : MPEG Audio
Format version : Version 1
Format profile : Layer 3
Mode : Joint stereo
Mode extension : MS Stereo
Codec ID : 55
Codec ID/Hint : MP3
Duration : 39mn 41s
Bit rate mode : Variable
Bit rate : 121 Kbps
Nominal bit rate : 128 Kbps
Channel(s) : 2 channels
Sampling rate : 48.0 KHz
Compression mode : Lossy
Stream size : 34.4 MiB (7%)
Alignment : Aligned on interleaves
Interleave, duration : 24 ms (0.60 video frame)
Interleave, preload duration : 500 ms
Writing library : LAME3.99r
Encoding settings : -m j -V 4 -q 3 -lowpass 17 --abr 128

Скриншот с названием постановки

Скриншоты




Показать сообщения:    

Текущее время: 07-Дек 19:28

Часовой пояс: UTC + 3


Вы не можете начинать темы
Вы не можете отвечать на сообщения
Вы не можете редактировать свои сообщения
Вы не можете удалять свои сообщения
Вы не можете голосовать в опросах
Вы не можете прикреплять файлы к сообщениям
Вы не можете скачивать файлы