Про Федота - стрельца, удалого молодца / Про Федота - стрельца, удалого молодца (Зинаида Алиева) [2005, Россия, Театр Одного Актёра, DVD Remux]


 

[Цитировать]

Про Федота - стрельца, удалого молодца / 2005 / DVD Remux
Год выпуска: 2005
Жанр: Театр Одного Актёра
Продолжительность: 00:55:26
Выпущено: ГОСТЕЛЕРАДИО СССР 1988 / ГОСТЕЛЕРАДИОФОНД 1995 / ООО МЕДИАТЕКА ПАБЛИШИНГ 2005
Режиссер: Зинаида Алиева
В ролях: Леонид Филатов
Описание: "Сказка про Федота - стрельца, удалого молодца" - культовая отечественная сказка в испонении автора - Леонида Филатова. "В нашей пишущей стране пишут даже на стене. Вот и мне пришла охота быть со всеми наравне!" Так в шутливом интервью обьяснил когда-то Леонид Филатов, с чего это он вдруг взял и сочинил "Про Федота". Моноспектакль Леонида Филатова настоящая народная сказка. Она разошлась пословицами, которые произносят, не зная, что цитируют Филатова. Это сказка блистательно написана поэтом Леонидом Филатовым и не менее блистательно рассказана актером Леонидом Филатовым. Его произведения, искрометные и живые, не перестают смешить и восхищать нас, a Леонид Филатов навсегда вошел в историю российского искусства.
Доп. информация: Леонид Алексеевич Филатов Актер, режиссер, писатель, Народный артист России (1995). Родился 24 декабря 1946 г. в Казани. В 1969 г. окончил актерский факультет Театрального училища им. Щукина. Работал в Театре на Таганке, театре «Современник», с 1993 г. - в театре «Содружество актеров Таганки». С 1994 г. - автор и ведущий телепрограммы «Чтобы помнили...» Лауреат Государственной премии России (1995), премий «Триумф» (1997), «ТЭФИ» (1996), обладатель призов на МКФ в Карловых Барах, на КФ «Кинотавр» в Сочи (1986), специального приза Академии Российского телевидения (1996). В кино с 1970 г. (около сорока работ), Автор литературных произведений. Умер 26 октября 2003 г. в Москве
Качество: DVD Remux
Видео: 720x576 (4:3), 25 fps, Matroska V_MPEG2 ~7 834 kbps avg, 0.27 bit/pixel
Аудио: 48 kHz, AC3 Dolby Digital, 3/2 (L,C,R,l,r) + LFE ch, ~448.00 kbps avg
Размер: 3.35 ГБ

Инфо

General
Unique ID : 115897815436836528259860720232545435650 (0x57311B7994082FA9BB6AA313E808C002)
Complete name : D:\Леонид Филатов - Про Федота-стрельца, удалого молодца [torrents.ru].mkv
Format : Matroska
Format version : Version 2
File size : 3.35 GiB
Duration : 55mn 26s
Overall bit rate : 8 646 Kbps
Encoded date : UTC 2015-04-01 19:22:14
Writing application : MakeMKV v1.8.10 win(x64-release)
Writing library : libmakemkv v1.8.10 (1.3.0/1.4.1) win(x64-release)
Video #1
ID : 1
Format : MPEG Video
Format version : Version 2
Format profile : Main@Main
Format settings, BVOP : Yes
Format settings, Matrix : Default
Format settings, GOP : M=3, N=12
Format settings, picture structure : Frame
Codec ID : V_MPEG2
Codec ID/Info : MPEG 1 or 2 Video
Bit rate : 7 834 Kbps
Maximum bit rate : 8 000 Kbps
Width : 720 pixels
Height : 576 pixels
Display aspect ratio : 4:3
Frame rate mode : Variable
Original frame rate : 25.000 fps
Standard : PAL
Color space : YUV
Chroma subsampling : 4:2:0
Bit depth : 8 bits
Scan type : Interlaced
Scan order : Bottom Field First
Compression mode : Lossy
Time code of first frame : 00:00:00:00
Time code source : Group of pictures header
GOP, Open/Closed : Closed
Language : English
Default : No
Forced : No
Audio #2
ID : 2
Format : AC-3
Format/Info : Audio Coding 3
Mode extension : CM (complete main)
Format settings, Endianness : Big
Codec ID : A_AC3
Duration : 55mn 26s
Bit rate mode : Constant
Bit rate : 192 Kbps
Channel(s) : 2 channels
Channel positions : Front: L R
Sampling rate : 48.0 KHz
Bit depth : 16 bits
Compression mode : Lossy
Stream size : 76.1 MiB (2%)
Title : Stereo
Language : Russian
Default : Yes
Forced : No
Audio #3
ID : 3
Format : AC-3
Format/Info : Audio Coding 3
Mode extension : CM (complete main)
Format settings, Endianness : Big
Codec ID : A_AC3
Duration : 55mn 26s
Bit rate mode : Constant
Bit rate : 448 Kbps
Channel(s) : 6 channels
Channel positions : Front: L C R, Side: L R, LFE
Sampling rate : 48.0 KHz
Bit depth : 16 bits
Compression mode : Lossy
Stream size : 178 MiB (5%)
Title : Surround 5.1
Language : Russian
Default : No
Forced : No

Скриншоты




Аудиоспектакль качаем с нашего торрент-трекера отсюда ===> тут
DVD Remux сделан вот с этой DVD версии диска качаем с нашего торрент-трекера отсюда ===> тут
DVDRip качаем с нашего торрент-трекера отсюда ===> тут



Показать сообщения:    

Текущее время: 10-Дек 04:13

Часовой пояс: UTC + 3


Вы не можете начинать темы
Вы не можете отвечать на сообщения
Вы не можете редактировать свои сообщения
Вы не можете удалять свои сообщения
Вы не можете голосовать в опросах
Вы не можете прикреплять файлы к сообщениям
Вы не можете скачивать файлы