Tout paye или Все оплачено (Эльмо Нюганен, Инна Чурикова) [2014 г., комедия, SATRip] Московский Государственный театр "Ленком"


 

[Цитировать]

Tout paye или Все оплачено (2 акта) Название театра: Московский Государственный театр "Ленком".
Год выпуска: 2014.
Жанр: комедия.
Продолжительность: 01:40:29 + 01:04:45 (02:45:14).
Режиссёры: Эльмо Нюганен, народная артистка СССР Инна Чурикова, Алексей Шлянин.
Действующие лица и исполнители:
Александр - народный артист России Андрей Соколов,
Элеонора - народная артистка СССР Инна Чурикова,
Машу - народный артист России Александр Збруев,
Мелия - заслуженная артистка России Ирина Серова,
Виржиния - Ксения Бабуркина,
Поло - Сергей Пиотровский.
Описание:
Эксцентричный богач Александр решает осуществить странную авантюру. Будучи совершенно одиноким, он за солидную плату нанимает себе… верного друга, любящую жену и ребенка. Наиболее подходящими для этих ролей он находит бомжа по имени Машу, безработную актрису Элеонору, а также молоденькую проститутку Виржинию. Александр искренне верит во всесилие больших денег и решает купить необходимые ему дружбу и любовь.
Дополнительная информация:
Страна: Россия .
Выпущено: Московский Государственный театр "Ленком", © Продюсерский центр "Кулиса", © "Кинокомпания "ВиргоС", © по закзу Правительства Москвы.
Автор: Ив Жамиак.
Перевод Евгения Бабенко.
Постановка: Эльмо Нюганен.
Режиссер: народная артистка СССР Инна Чурикова.
Художник-постановщик: Андрис Фрейберг (Латвия).
Художник по костюмам: Кристина Пастернак.
Музыкальное оформление: Риина Роозе (Этония).
Художник по свету: Сергей Скорнецкий.
Директор театрального проекта: заслуженный деятель искусств России Марк Варшавер.
Премьера спектакля состоялась 31 января 2004 года.
Режиссёр телеверсии: Алексей Шлянин.
Оператор-постановщик: Виталий Токарев.

О спектакле.
Релиз

Качество видео:...SATRip
Формат:.................AVI
Видео:..720x400 (1.80:1), 25 fps, XviD MPEG-4 ~1750 kbps avg, 0.24 bit/pixel
Аудио:..44.100 kHz, MPEG Layer 3, 2 ch, ~128.00 kbps avg

Отчет MI

1-й акт
Общее
Полное имя : Tout.paye.ili.vse.oplacheno_Moskovskij.teatr.Lensoveta.(2.akta.iz.2).2014.XviD.SATRip.fenixclub\Tout.paye.ili.vse.oplacheno_Moskovskij.teatr.Lensoveta.1.avi
Format : AVI
Format/Info : Audio Video Interleave
File size : 1.33 GiB
Duration : 1h 40mn
Overall bit rate : 1 894 Kbps
Writing application : VirtualDubModRus 1.5.10.2 (build 2542/release)
Writing library : VirtualDub build 32842/release
Video
ID : 0
Format : MPEG-4 Visual
Format profile : Advanced Simple@L5
Format settings, BVOP : 2
Format settings, QPel : No
Format settings, GMC : No warppoints
Format settings, Matrix : Default (H.263)
Muxing mode : Packed bitstream
Codec ID : XVID
Codec ID/Hint : XviD
Duration : 1h 40mn
Bit rate : 1 757 Kbps
Width : 720 pixels
Height : 400 pixels
Display aspect ratio : 16:9
Frame rate : 25.000 fps
Color space : YUV
Chroma subsampling : 4:2:0
Bit depth : 8 bits
Scan type : Progressive
Compression mode : Lossy
Bits/(Pixel*Frame) : 0.244
Stream size : 1.23 GiB (93%)
Writing library : XviD 73
Audio
ID : 1
Format : MPEG Audio
Format version : Version 1
Format profile : Layer 3
Mode : Joint stereo
Mode extension : MS Stereo
Codec ID : 55
Codec ID/Hint : MP3
Duration : 1h 40mn
Bit rate mode : Constant
Bit rate : 128 Kbps
Channel(s) : 2 channels
Sampling rate : 44.1 KHz
Compression mode : Lossy
Stream size : 92.0 MiB (7%)
Alignment : Split accross interleaves
Interleave, duration : 40 ms (1.00 video frame)
Interleave, preload duratio : 500 ms
Writing library : LAME3.98.2
2-й акт
Общее
Полное имя : Tout.paye.ili.vse.oplacheno_Moskovskij.teatr.Lensoveta.(2.akta.iz.2).2014.XviD.SATRip.fenixclub\Tout.paye.ili.vse.oplacheno_Moskovskij.teatr.Lensoveta.2.avi
Format : AVI
Format/Info : Audio Video Interleave
File size : 875 MiB
Duration : 1h 4mn
Overall bit rate : 1 889 Kbps
Writing application : VirtualDubModRus 1.5.10.2 (build 2542/release)
Writing library : VirtualDub build 32842/release
Video
ID : 0
Format : MPEG-4 Visual
Format profile : Advanced Simple@L5
Format settings, BVOP : 2
Format settings, QPel : No
Format settings, GMC : No warppoints
Format settings, Matrix : Default (H.263)
Muxing mode : Packed bitstream
Codec ID : XVID
Codec ID/Hint : XviD
Duration : 1h 4mn
Bit rate : 1 751 Kbps
Width : 720 pixels
Height : 400 pixels
Display aspect ratio : 16:9
Frame rate : 25.000 fps
Color space : YUV
Chroma subsampling : 4:2:0
Bit depth : 8 bits
Scan type : Progressive
Compression mode : Lossy
Bits/(Pixel*Frame) : 0.243
Stream size : 811 MiB (93%)
Writing library : XviD 73
Audio
ID : 1
Format : MPEG Audio
Format version : Version 1
Format profile : Layer 3
Mode : Joint stereo
Mode extension : MS Stereo
Codec ID : 55
Codec ID/Hint : MP3
Duration : 1h 4mn
Bit rate mode : Constant
Bit rate : 128 Kbps
Channel(s) : 2 channels
Sampling rate : 44.1 KHz
Compression mode : Lossy
Stream size : 59.3 MiB (7%)
Alignment : Split accross interleaves
Interleave, duration : 40 ms (1.00 video frame)
Interleave, preload duratio : 500 ms.

Скриншот с названием спектакля

Скриншоты


Альтернативный хост





Показать сообщения:    

Текущее время: 03-Дек 07:38

Часовой пояс: UTC + 3


Вы не можете начинать темы
Вы не можете отвечать на сообщения
Вы не можете редактировать свои сообщения
Вы не можете удалять свои сообщения
Вы не можете голосовать в опросах
Вы не можете прикреплять файлы к сообщениям
Вы не можете скачивать файлы