О, Мельпомена! (Диана Лукова) [1987, комедия, драма, WEB-DL]


 

[Цитировать]

О, Мельпомена!
Жанр: комедия, драма
Год выпуска: 1987
Продолжительность: 01:30:50
Режиссёр: Диана Лукова
В ролях: Кирилл Лавров, Александр Демьяненко, Елена Соловей, Игорь Дмитриев, Геннадий Богачёв, Борис Соколов, Михаил Светин, Елена Попова, Леонид Неведомский
Описание: Телеспектакль по мотивам рассказов А. Чехова «Трагик», «Барон», «Критик», «Комик», «Лебединая гибель»
Качество видео: WEB-DL
Формат видео: MP4
Видео: MPEG4 Video (H264) 768x592 25fps 1994kbps
Аудио: AAC 48000Hz stereo 112kbps

MediaInfo

General
Complete name : I:\ТЕЛЕСПЕКТАКЛИ ZOOMBY\О! Мельпомена .mp4
Format : MPEG-4
Format profile : Base Media
Codec ID : isom
File size : 1.34 GiB
Duration : 1h 30mn
Overall bit rate mode : Variable
Overall bit rate : 2 113 Kbps
Video
ID : 1
Format : AVC
Format/Info : Advanced Video Codec
Format profile : High@L3.1
Format settings, CABAC : No
Format settings, ReFrames : 4 frames
Codec ID : avc1
Codec ID/Info : Advanced Video Coding
Duration : 1h 30mn
Bit rate : 1 995 Kbps
Width : 768 pixels
Height : 592 pixels
Display aspect ratio : 1.299
Frame rate mode : Constant
Frame rate : 25.000 fps
Color space : YUV
Chroma subsampling : 4:2:0
Bit depth : 8 bits
Scan type : Progressive
Bits/(Pixel*Frame) : 0.175
Stream size : 1.27 GiB (94%)
Writing library : x264 core 130
Encoding settings : cabac=0 / ref=4 / deblock=1:0:0 / analyse=0x3:0x113 / me=umh / subme=9 / psy=1 / psy_rd=1.00:0.00 / mixed_ref=1 / me_range=16 / chroma_me=1 / trellis=1 / 8x8dct=1 / cqm=0 / deadzone=21,11 / fast_pskip=1 / chroma_qp_offset=-2 / threads=18 / lookahead_threads=1 / sliced_threads=0 / nr=0 / decimate=1 / interlaced=0 / bluray_compat=0 / constrained_intra=0 / bframes=3 / b_pyramid=2 / b_adapt=2 / b_bias=0 / direct=1 / weightb=1 / open_gop=0 / weightp=2 / keyint=300 / keyint_min=23 / scenecut=40 / intra_refresh=0 / rc_lookahead=40 / rc=crf / mbtree=1 / crf=21.0 / qcomp=0.60 / qpmin=10 / qpmax=51 / qpstep=4 / ip_ratio=1.41 / aq=1:1.00
Audio
ID : 2
Format : AAC
Format/Info : Advanced Audio Codec
Format profile : LC
Codec ID : 40
Duration : 1h 30mn
Bit rate mode : Variable
Bit rate : 112 Kbps
Maximum bit rate : 128 Kbps
Channel(s) : 2 channels
Channel positions : Front: L R
Sampling rate : 48.0 KHz
Compression mode : Lossy
Stream size : 73.0 MiB (5%)

Скриншот с названием постановки

Скриншоты




Показать сообщения:    

Текущее время: 04-Дек 19:20

Часовой пояс: UTC + 3


Вы не можете начинать темы
Вы не можете отвечать на сообщения
Вы не можете редактировать свои сообщения
Вы не можете удалять свои сообщения
Вы не можете голосовать в опросах
Вы не можете прикреплять файлы к сообщениям
Вы не можете скачивать файлы