Дождь (Владимир Латышев) [1984, телеспектакль, экранизация, WEB-DL]


 

[Цитировать]

Дождь
Жанр: телеспектакль, экранизация
Год выпуска: 1984
Продолжительность: 00:55:02
Режиссёр: Владимир Латышев
В ролях: Анна Алексахина, Ирина Селезнева, Антонина Шуранова, Валерий Полетаев
Описание: Теленовелла по рассказам Ивана Бунина «Руся», «Когда я впервые…», «Качели»
Качество видео: WEB-DL
Формат видео: MP4
Видео: MPEG4 Video (H264) 768x592 25fps 2607kbps
Аудио: AAC 48000Hz stereo 127kbps

MediaInfo

General
Complete name : I:\ТЕЛЕСПЕКТАКЛИ ZOOMBY\Дождь.mp4
Format : MPEG-4
Format profile : Base Media
Codec ID : isom
File size : 1.05 GiB
Duration : 55mn 2s
Overall bit rate : 2 742 Kbps
Writing application : Lavf55.48.100
Video
ID : 1
Format : AVC
Format/Info : Advanced Video Codec
Format profile : High@L3.1
Format settings, CABAC : No
Format settings, ReFrames : 4 frames
Codec ID : avc1
Codec ID/Info : Advanced Video Coding
Duration : 55mn 2s
Bit rate : 2 608 Kbps
Width : 768 pixels
Height : 592 pixels
Display aspect ratio : 4:3
Original display aspect ratio : 4:3
Frame rate mode : Constant
Frame rate : 25.000 fps
Color space : YUV
Chroma subsampling : 4:2:0
Bit depth : 8 bits
Scan type : Progressive
Bits/(Pixel*Frame) : 0.229
Stream size : 1.00 GiB (95%)
Writing library : x264 core 125 r2200 999b753
Encoding settings : cabac=0 / ref=4 / deblock=1:0:0 / analyse=0x3:0x113 / me=umh / subme=9 / psy=1 / psy_rd=1.00:0.00 / mixed_ref=1 / me_range=16 / chroma_me=1 / trellis=1 / 8x8dct=1 / cqm=0 / deadzone=21,11 / fast_pskip=1 / chroma_qp_offset=-2 / threads=36 / lookahead_threads=6 / sliced_threads=0 / nr=0 / decimate=1 / interlaced=0 / bluray_compat=0 / constrained_intra=0 / bframes=3 / b_pyramid=2 / b_adapt=2 / b_bias=0 / direct=1 / weightb=1 / open_gop=0 / weightp=2 / keyint=300 / keyint_min=23 / scenecut=40 / intra_refresh=0 / rc_lookahead=40 / rc=crf / mbtree=1 / crf=21.0 / qcomp=0.60 / qpmin=10 / qpmax=51 / qpstep=4 / ip_ratio=1.41 / aq=1:1.00
Audio
ID : 2
Format : AAC
Format/Info : Advanced Audio Codec
Format profile : LC
Codec ID : 40
Duration : 55mn 2s
Bit rate mode : Constant
Bit rate : 128 Kbps
Channel(s) : 2 channels
Channel positions : Front: L R
Sampling rate : 48.0 KHz
Compression mode : Lossy
Stream size : 50.4 MiB (5%)

Скриншот с названием постановки

Скриншоты




Показать сообщения:    

Текущее время: 05-Дек 23:37

Часовой пояс: UTC + 3


Вы не можете начинать темы
Вы не можете отвечать на сообщения
Вы не можете редактировать свои сообщения
Вы не можете удалять свои сообщения
Вы не можете голосовать в опросах
Вы не можете прикреплять файлы к сообщениям
Вы не можете скачивать файлы