Обиды не страшась, не требуя венца (Алина Казьмина) [1986 г., Литературные чтения, моноспектакль, SATRip]


 

[Цитировать]

Обиды не страшась, не требуя венца Год выпуска: 1986.
Жанр: Литературные чтения, моноспектакль.
Продолжительность: 00:55:31.
Режиссер: Алина Казьмина.
Исполнитель: Яков Смоленский.
Описание:
Последней пушкинской работой народного артиста России Якова Смоленского стала композиция "Обиды не страшась, не требуя венца...", написанная по публицистическим наброскам и черновикам Александра Сергеевича Пушкина. Это размышления великого классика о творчестве, критиках, роли Поэта в общественной жизни.
Яков Михайлович Смоленский – актер, чтец, народный артист России, профессор, действительный член академии Гуманитарных наук; его именем назван межвузовский конкурс чтецов при Щукинском театральном училище, участие в котором открыло дорогу в театральный мир многим начинающим талантливым артистам.
Яков Михайлович родился в Петрограде. После окончания школы он поступил на филологический факультет ЛГУ, окончить который ему не пришлось – началась Великая Отечественная война. С третьего курса Смоленский ушел добровольцем на фронт, был тяжело ранен, потом – госпиталь, блокада, эвакуация в Омске, где размещался в то время Вахтанговский театр. Там он поступил в Щукинское училище, по окончании которого стал актером театра им. Евгения Вахтангова, где проработал более 10 лет. Именно тогда Яков Михайлович начал выступать на литературной эстраде. 50 лет работы в Московской Государственной Филармонии подарили любителям чтецкого искусства великое множество программ Якова Смоленского.
Одним из главных "авторов на всю жизнь" для Якова Смоленского стал Александр Сергеевич Пушкин.

Дополнительная информация:
Страна: СССР .
Выпущено: © Главная редакция литературно-драматических программ ЦТ Гостелерадио СССР.
Оператор-постановщик: Евгений Павлов.
Художник-постановщик: Марина Крупнова.
Релиз
Качество видео:...SATRip
Формат:.................AVI
Видео:..720x544 (1.32:1), 25 fps, DivX Codec 6.8.3 ~1733 kbps avg, 0.18 bit/pixel
Аудио:..48 kHz, MPEG Layer 3, 2 ch, ~128.00 kbps avg

Отчет MI

General
Complete name : Obidy.ne.strashas.1986.XviD.SATRip.fenixclub.avi
Format : AVI
Format/Info : Audio Video Interleave
File size : 743 MiB
Duration : 55mn 31s
Overall bit rate : 1 871 Kbps
Writing application : VirtualDubModRus 1.5.10.2 (build 2542/release)
Writing library : VirtualDub build 32842/release
Video
ID : 0
Format : MPEG-4 Visual
Format settings, BVOP : 1
Format settings, QPel : No
Format settings, GMC : No warppoints
Format settings, Matrix : Default (H.263)
Muxing mode : Packed bitstream
Codec ID : DX50
Codec ID/Hint : DivX 5
Duration : 55mn 31s
Bit rate : 1 733 Kbps
Width : 720 pixels
Height : 544 pixels
Display aspect ratio : 4:3
Frame rate : 25.000 fps
Color space : YUV
Chroma subsampling : 4:2:0
Bit depth : 8 bits
Scan type : Progressive
Compression mode : Lossy
Bits/(Pixel*Frame) : 0.177
Stream size : 688 MiB (93%)
Writing library : DivX 6.8.3-6.8.4 (UTC 2008-06-07)
Audio
ID : 1
Format : MPEG Audio
Format version : Version 1
Format profile : Layer 3
Mode : Joint stereo
Mode extension : MS Stereo
Codec ID : 55
Codec ID/Hint : MP3
Duration : 55mn 31s
Bit rate mode : Constant
Bit rate : 128 Kbps
Channel(s) : 2 channels
Sampling rate : 48.0 KHz
Compression mode : Lossy
Stream size : 50.8 MiB (7%)
Alignment : Split accross interleaves
Interleave, duration : 40 ms (1.00 video frame)
Interleave, preload duratio : 500 ms

Скриншоты

Альтернативный хост




Показать сообщения:    

Текущее время: 10-Дек 15:45

Часовой пояс: UTC + 3


Вы не можете начинать темы
Вы не можете отвечать на сообщения
Вы не можете редактировать свои сообщения
Вы не можете удалять свои сообщения
Вы не можете голосовать в опросах
Вы не можете прикреплять файлы к сообщениям
Вы не можете скачивать файлы