Гамлет (Борис Морозов) [2014 г., трагедия, SATRip] Центральный академический театр Российской Армии


 

[Цитировать]

Гамлет (2 части) Название театра: Центральный академический театр Российской Армии.
Жанр: трагедия.
Год выпуска: 2014.
Продолжительность: 01:36:38 + 01:03:24 (02:40:02).
Режиссер: народный артист России Борис Морозов.
Действующие лица и исполнители:
Клавдий, король Датский - заслуженный артист России Андрей Новиков,
Гамлет, принц Датский - заслуженный артист России Николай Лазарев,
Фортинбрас, принц Норвежский - Сергей Федюшкин,
Полоний, канцлер - народный артист России Валерий Абрамов,
Горацио, друг Гамлета - Юрий Сазонов,
Лаэрт, сын Полония - заслуженный артист России Андрей Егоров,
Вольтимандт - Александр Разин,
Корнелий - Илья Акинтьев,
Розенкранц - Вадим Пожарский,
Гильденстерн - Сергей Иванюк,
Озрик - Александр Катин,
Марцел - Андрей Пойдышев,
Бернардо - Тимур Еремеев,
1-й могильщик - Александр Леонтьев,
2-й могильщик - Константин Корнеев,
Гертруда, королева - народная артистка России Ольга Богданова,
Офелия, дочь Полония - Ольга Никитина,
Призрак отца Гамлета - народный артист России Леон Кукулян,
Актер-король - заслуженный артист России Виталий Стремовский,
Актриса-королева - Елена Сванидзе,
Бродячий актер - Алексей Горячев.
Описание:
"Гамлет" - самая знаменитая пьеса мирового репертуара - в постановке ЦАТРА является уникальным соединением гениального текста Уильяма Шекспира и выдающейся музыки великого композитора ХХ столетия, народного артиста СССР Дмитрия Шостаковича. Жизнь и смерть, любовь и обман, самопожертвование и предательство - эти и многие другие "вечные" вопросы пытаются разрешить для себя шекспировские герои.
Дополнительная информация:
Страна: Россия .
Выпущено: Центральный академический театр Российской Армии, © "Единая Медиа Группа", © по заказу Правительства Москвы.
Режиссер-постановщик спектакля: заслуженный артист России Андрей Бадулин.
Автор: Вильям Шекспир.
Музыка: народный артист СССР Дмитрий Шостакович.
Художник-постановщик: Михаил Курилко-Рюмин.
Балетмейстер-постановщик: Ирина Филиппова.
Премьера спектакля состоялась в октябре 2006 года.

О спектакле.
Релиз

Качество: SATRip
Формат: AVI
Видео:..720x400 (1.80:1), 25 fps, XviD MPEG-4 ~1802 kbps avg, 0.25 bit/pixel
Аудио:..44.100 kHz, MPEG Layer 3, 2 ch, ~128.00 kbps avg

Отчет Media Info

1-я часть
Общее
Полное имя : Gamlet_CATRA.(2.chasti.iz.2).2014.XviD.SATRip.fenixclub\Gamlet_CATRA-1.avi
Format : AVI
Format/Info : Audio Video Interleave
File size : 1.31 GiB
Duration : 1h 36mn
Overall bit rate : 1 940 Kbps
Writing application : VirtualDubModRus 1.5.10.2 (build 2542/release)
Writing library : VirtualDub build 32842/release
Video
ID : 0
Format : MPEG-4 Visual
Format profile : Advanced Simple@L5
Format settings, BVOP : 2
Format settings, QPel : No
Format settings, GMC : No warppoints
Format settings, Matrix : Default (H.263)
Muxing mode : Packed bitstream
Codec ID : XVID
Codec ID/Hint : XviD
Duration : 1h 36mn
Bit rate : 1 803 Kbps
Width : 720 pixels
Height : 400 pixels
Display aspect ratio : 16:9
Frame rate : 25.000 fps
Color space : YUV
Chroma subsampling : 4:2:0
Bit depth : 8 bits
Scan type : Progressive
Compression mode : Lossy
Bits/(Pixel*Frame) : 0.250
Stream size : 1.22 GiB (93%)
Writing library : XviD 73
Audio
ID : 1
Format : MPEG Audio
Format version : Version 1
Format profile : Layer 3
Mode : Joint stereo
Mode extension : MS Stereo
Codec ID : 55
Codec ID/Hint : MP3
Duration : 1h 36mn
Bit rate mode : Constant
Bit rate : 128 Kbps
Channel(s) : 2 channels
Sampling rate : 44.1 KHz
Compression mode : Lossy
Stream size : 88.5 MiB (7%)
Alignment : Split accross interleaves
Interleave, duration : 40 ms (1.00 video frame)
Interleave, preload duratio : 500 ms
Writing library : LAME3.98.2
2-я часть
Общее
Полное имя : Gamlet_CATRA.(2.chasti.iz.2).2014.XviD.SATRip.fenixclub\Gamlet_CATRA-2.avi
Format : AVI
Format/Info : Audio Video Interleave
File size : 887 MiB
Duration : 1h 3mn
Overall bit rate : 1 957 Kbps
Writing application : VirtualDubModRus 1.5.10.2 (build 2542/release)
Writing library : VirtualDub build 32842/release
Video
ID : 0
Format : MPEG-4 Visual
Format profile : Advanced Simple@L5
Format settings, BVOP : 2
Format settings, QPel : No
Format settings, GMC : No warppoints
Format settings, Matrix : Default (H.263)
Muxing mode : Packed bitstream
Codec ID : XVID
Codec ID/Hint : XviD
Duration : 1h 3mn
Bit rate : 1 819 Kbps
Width : 720 pixels
Height : 400 pixels
Display aspect ratio : 16:9
Frame rate : 25.000 fps
Color space : YUV
Chroma subsampling : 4:2:0
Bit depth : 8 bits
Scan type : Progressive
Compression mode : Lossy
Bits/(Pixel*Frame) : 0.253
Stream size : 825 MiB (93%)
Writing library : XviD 73
Audio
ID : 1
Format : MPEG Audio
Format version : Version 1
Format profile : Layer 3
Mode : Joint stereo
Mode extension : MS Stereo
Codec ID : 55
Codec ID/Hint : MP3
Duration : 1h 3mn
Bit rate mode : Constant
Bit rate : 128 Kbps
Channel(s) : 2 channels
Sampling rate : 44.1 KHz
Compression mode : Lossy
Stream size : 58.0 MiB (7%)
Alignment : Split accross interleaves
Interleave, duration : 40 ms (1.00 video frame)
Interleave, preload duratio : 500 ms
Writing library : LAME3.98.2

Скриншоты


Альтернативный хост





Показать сообщения:    

Текущее время: 08-Дек 01:20

Часовой пояс: UTC + 3


Вы не можете начинать темы
Вы не можете отвечать на сообщения
Вы не можете редактировать свои сообщения
Вы не можете удалять свои сообщения
Вы не можете голосовать в опросах
Вы не можете прикреплять файлы к сообщениям
Вы не можете скачивать файлы