Посторонний (Екатерина Половцева) [2014 г., сны, SATRip] Московский театр "Современник"


 

[Цитировать]

Посторонний Название театра: Московский театр "Современник".
Год выпуска: 2014.
Жанр: сны в двух частях.
Продолжительность: 02:19:03.
Режиссер: Екатерина Половцева.
В ролях:
Илья Лыков, Елена Плаксина, Геннадий Фролов, Александр Кахун, Евгений Матвеев, Ирина Девляшова, Ольга Мелихова, Вероника Науменко, Михаил Милевич, Виктор Рившин, Алексей Спинев, Алексей Шувалов.
Описание:
В основу спектакля легла повесть французского философа-экзистенциалиста Альбера Камю.
Действие происходит в Алжире, тогда еще французской колонии, где-то в начале 40-х годов XX века.
По сюжету у алжирского клерка Мерсо умирает мать. Он равнодушно хоронит ее и на следующий день вступает в отношения со своей бывшей сослуживицей Марией, которую на самом деле не любит. Мерсо безразличен к миру, его реальность заключена лишь в непосредственно чувственном восприятии.
Затем по нелепой случайности ослепленный беспощадным солнцем Мерсо убивает человека. Однако суд выносит ему приговор не за убийство, а за то, что герой не плакал на похоронах матери. Так мир избавляется от постороннего. Главный герой опустошается с каждым днем. Смерть матери, влюбленность в Мари Кордона, внутренняя пустота, равнодушие к возлюбленной. Для него тягчайшая кара - неизбывное раскаяние и укоры совести. И лишь в момент оглашения судебного вердикта Мерсо судорожно осознает свое отрицание неизбежности механического следования событий жизни. Но миг противоборства с неизбежностью происходящего лопается как мыльный пузырь. Перед нами герой, склонивший голову. Поникший не от бессилия, а от пагубного для почти умершей души смирения перед роком.
История Мерсо - это история тихого бунта против религии и морали. Общество не может простить героя не за отсутствие чувств, а за то, что он не считает нужным скрывать свое безразличие. Герой Камю не понимает, почему люди вокруг продолжают делать все, чтобы добиться его наказания, не понимает, почему быть посторонним - преступление.

Дополнительная информация:
Страна: Россия .
Выпущено: Московский театр "Современник", © "Единая Медиа Группа", © по заказу Правительства Москвы.
Постановка и сценическая композиция: Екатерина Половцева.
Автор: Альбер Камю.
Перевод с французского: Нора Галь.
Художник–постановщик: Ирина Уколова.
Художник по костюмам: Евгения Князева.
Художник по свету: Нарек Туманян.
Композитор: Сергей Филиппов.
В спектакле звучит музыка группы «Sigur Ros», а также «Fernandes».
Постановка цирковых номеров: Виктор Рощин.
Художественный руководитель театра: народная артистка СССР Галина Волчек.

О спектакле.
Релиз

Качество видео:...SATRip
Формат:.................AVI
Видео:..720x400 (1.80:1), 25 fps, XviD MPEG-4 ~1365 kbps avg, 0.19 bit/pixel
Аудио:..44.100 kHz, MPEG Layer 3, 2 ch, ~128.00 kbps avg

Отчет Media Info

General
Complete name : Postoronnij_Moskovskij.teatr.Sovremennik.2014.XviD.SATRip.fenixclub.avi
Format : AVI
Format/Info : Audio Video Interleave
File size : 1.46 GiB
Duration : 2h 19mn
Overall bit rate : 1 504 Kbps
Writing application : VirtualDubModRus 1.5.10.2 (build 2542/release)
Writing library : VirtualDub build 32842/release
Video
ID : 0
Format : MPEG-4 Visual
Format profile : Advanced Simple@L5
Format settings, BVOP : 2
Format settings, QPel : No
Format settings, GMC : No warppoints
Format settings, Matrix : Default (H.263)
Muxing mode : Packed bitstream
Codec ID : XVID
Codec ID/Hint : XviD
Duration : 2h 19mn
Bit rate : 1 366 Kbps
Width : 720 pixels
Height : 400 pixels
Display aspect ratio : 16:9
Frame rate : 25.000 fps
Color space : YUV
Chroma subsampling : 4:2:0
Bit depth : 8 bits
Scan type : Progressive
Compression mode : Lossy
Bits/(Pixel*Frame) : 0.190
Stream size : 1.33 GiB (91%)
Writing library : XviD 73
Audio
ID : 1
Format : MPEG Audio
Format version : Version 1
Format profile : Layer 3
Mode : Joint stereo
Mode extension : MS Stereo
Codec ID : 55
Codec ID/Hint : MP3
Duration : 2h 19mn
Bit rate mode : Constant
Bit rate : 128 Kbps
Channel(s) : 2 channels
Sampling rate : 44.1 KHz
Compression mode : Lossy
Stream size : 127 MiB (9%)
Alignment : Split accross interleaves
Interleave, duration : 40 ms (1.00 video frame)
Interleave, preload duratio : 500 ms
Writing library : LAME3.98.2

Скриншоты


Альтернативный хост





Показать сообщения:    

Текущее время: 18-Янв 00:25

Часовой пояс: UTC + 3


Вы не можете начинать темы
Вы не можете отвечать на сообщения
Вы не можете редактировать свои сообщения
Вы не можете удалять свои сообщения
Вы не можете голосовать в опросах
Вы не можете прикреплять файлы к сообщениям
Вы не можете скачивать файлы