Последний идол (Владимир Драгунов) [2014 г., Сцены из современной жизни, SATRip] Государственный академический Малый театр


 

[Цитировать]

Последний идол Название театра: Государственный академический Малый театр.
Год выпуска: 2014.
Жанр: Сцены из современной жизни.
Продолжительность: 01:39:15.
Режиссеры: народный артист России Владимир Драгунов, Александр Сычев.
Действующие лица и исполнители:
Вера Александровна Иконникова - заслуженная артистка России Татьяна Лебедева,
Виктор, её старший сын - заслуженный артист России Глеб Подгородинский,
Максим, её младший сын - Григорий Скряпкин,
Дуня, дочь Виктора - Ольга Плешкова,
Геннадий Александрович Юсин - народный артист России Владимир Сафронов,
Таисия Семёновна, его жена - народная артистка России Алена Охлупина,
Клава, сторожиха дачного поселка - заслуженная артистка России Инна Иванова,
Инга Завидонова - Варвара Андреева,
Игорь Неволин, друг Максима - Максим Хрусталев,
Шофер - Алексей Анохин.
Описание:
Спектакль по пьесе современного российского писателя Александра Звягинцева.
Тема спектакля - уход одного поколения и приход на его смену нового, молодого, неординарного, спорного.
Главные герои покидают государственную дачу, камнем преткновения становится массивный бюст бывшего хозяина дома, который остается ненужным никому, ни вдове, ни детям, ни внукам.
И пока герои решают, кто из них заберет это сокровище в свою "малогабаритную квартиру", в памяти всплывают грустные, смешные и страшные истории из жизни нескольких поколений этой семьи.

Дополнительная информация:
Страна: Россия .
Выпущено: © Компания "ЛОНГ-Фильм", по заказу Правительства Москвы.
Автор: Александр Звягинцев.
Режиссер-постановщик спектакля: народный артист России Владимир Драгунов.
Художник-постановщик: Мария Вольская.
Композитор: народный артист России Григорий Гоберник.
Художник по свету: Елена Копунова.
Художественный руководитель театра: народный артист СССР Юрий Соломин.
Прeмьера спектакля: 16 ноября 2013 года.
Режиссеры телеверсии: Александр Сычев.
Оператор-постановщик: Олег Пикалев.

О спектакле.
Релиз

Качество: SATRip
Формат: AVI
Видео: 720x400 (1.80:1), 25 fps, XviD MPEG-4 ~1899 kbps avg, 0.26 bit/pixel
Аудио: 44.100 kHz, MPEG Layer 3, 2 ch, ~192.00 kbps avg

Отчет Media Info

General
Complete name : Poslednij.idol_Malyj.teatr.2014.XviD.SATRip.fenixclub.avi
Format : AVI
Format/Info : Audio Video Interleave
File size : 1.46 GiB
Duration : 1h 39mn
Overall bit rate : 2 102 Kbps
Video
ID : 0
Format : MPEG-4 Visual
Format profile : Advanced Simple@L5
Format settings, BVOP : 2
Format settings, QPel : No
Format settings, GMC : No warppoints
Format settings, Matrix : Default (H.263)
Codec ID : XVID
Codec ID/Hint : XviD
Duration : 1h 39mn
Bit rate : 1 900 Kbps
Width : 720 pixels
Height : 400 pixels
Display aspect ratio : 16:9
Frame rate : 25.000 fps
Color space : YUV
Chroma subsampling : 4:2:0
Bit depth : 8 bits
Scan type : Progressive
Compression mode : Lossy
Bits/(Pixel*Frame) : 0.264
Stream size : 1.32 GiB (90%)
Writing library : XviD 73
Audio
ID : 1
Format : MPEG Audio
Format version : Version 1
Format profile : Layer 3
Mode : Joint stereo
Mode extension : MS Stereo
Codec ID : 55
Codec ID/Hint : MP3
Duration : 1h 39mn
Bit rate mode : Constant
Bit rate : 192 Kbps
Channel(s) : 2 channels
Sampling rate : 44.1 KHz
Compression mode : Lossy
Stream size : 136 MiB (9%)
Alignment : Aligned on interleaves
Interleave, duration : 40 ms (1.00 video frame)
Writing library : LAME3.98.2

Скриншоты


Альтернативный хост





Показать сообщения:    

Текущее время: 08-Дек 21:09

Часовой пояс: UTC + 3


Вы не можете начинать темы
Вы не можете отвечать на сообщения
Вы не можете редактировать свои сообщения
Вы не можете удалять свои сообщения
Вы не можете голосовать в опросах
Вы не можете прикреплять файлы к сообщениям
Вы не можете скачивать файлы