Как поссорился И.И. с И.Н. (Марк Розовский) [2014 г., мюзикл, SATRip] Московский государственный театр «У Никитских ворот»


 

[Цитировать]

Как поссорился И.И. с И.Н. Название театра: Московский государственный театр «У Никитских ворот».
Год выпуска: 2014.
Жанр: мюзикл.
Продолжительность: 01:58:19.
Режиссер: народный артист России Марк Розовский, Максим Рязанцев.
Действующие лица и исполнители:
Иван Иванович - заслуженный артист России Юрий Голубцов,
Иван Никифорович - народный артист России Владимир Юматов,
Черт - Станислав Федорчук,
Хор, они же рассказчики, жители Миргорода, судейские и др., они же:
Гапка
- Дарья Щербакова,
Горпина - Наталья Корецкая,
Бабуся - заслуженная артистка России Маргарита Рассказова,
Торговец табаком - заслуженный артист России Александр Карпов,
Агафья Федосеевна - заслуженная артистка России Ирина Морозова,
Судья - Владимир Давиденко,
Секретарь суда - Александр Чернявский,
Городничий - заслуженный артист России Денис Юченков,
Дворовый - Никита Заболотный.
Описание:
Как поссорились Иван Иванович с Иваном Никифоровичем?
Зашёл Иван Иванович к своему закадычному другу Ивану Никифоровичу, желая выпросить понравившееся ружьё.
Да не сложилось. И в пылу спора Иван Никифорович возьми да и назови Ивана Ивановича гусаком.
А тот возьми да и разгневайся. А что было дальше... Ой, что было!..

Дополнительная информация:
Страна: Россия .
Выпущено: Московский государственный театр «У Никитских ворот», © ООО "Шар" по заказу Правительства Москвы.
Автор: Николай Васильевич Гоголь.
Пьеса, стихи и постановка: народный артист России Марк Розовский.
Композитор: Теодор Ефимов.
Сценография: Александр Лисянский.
Балетмейстер: Антон Николаев.
Художник по костюмам: Евгения Шульц.
Режиссер видеоверсии: Максим Рязанцев.
Оператор-постановщик: Сергей Отрепьев.

О спектакле.
Релиз

Качество видео: SATRip
Формат: AVI
Видео: 720x400 (1.80:1), 25 fps, XviD MPEG-4 ~1626 kbps avg, 0.23 bit/pixel
Аудио: 44.100 kHz, MPEG Layer 3, 2 ch, ~128.00 kbps avg

Отчет MediaInfo

Общее
Полное имя : Kak.possorilsya.I.I.s.I.N_Teatr.U.Nikitskih.vorot.2014.XviD.SATRip.fenixclub.avi
Format : AVI
Format/Info : Audio Video Interleave
File size : 1.46 GiB
Duration : 1h 58mn
Overall bit rate : 1 765 Kbps
Writing application : VirtualDubModRus 1.5.10.2 (build 2542/release)
Writing library : VirtualDub build 32842/release
Video
ID : 0
Format : MPEG-4 Visual
Format profile : Advanced Simple@L5
Format settings, BVOP : 2
Format settings, QPel : No
Format settings, GMC : No warppoints
Format settings, Matrix : Default (H.263)
Muxing mode : Packed bitstream
Codec ID : XVID
Codec ID/Hint : XviD
Duration : 1h 58mn
Bit rate : 1 627 Kbps
Width : 720 pixels
Height : 400 pixels
Display aspect ratio : 16:9
Frame rate : 25.000 fps
Color space : YUV
Chroma subsampling : 4:2:0
Bit depth : 8 bits
Scan type : Progressive
Compression mode : Lossy
Bits/(Pixel*Frame) : 0.226
Stream size : 1.34 GiB (92%)
Writing library : XviD 73
Audio
ID : 1
Format : MPEG Audio
Format version : Version 1
Format profile : Layer 3
Mode : Joint stereo
Mode extension : MS Stereo
Codec ID : 55
Codec ID/Hint : MP3
Duration : 1h 58mn
Bit rate mode : Constant
Bit rate : 128 Kbps
Channel(s) : 2 channels
Sampling rate : 44.1 KHz
Compression mode : Lossy
Stream size : 108 MiB (7%)
Alignment : Split accross interleaves
Interleave, duration : 40 ms (1.00 video frame)
Interleave, preload duratio : 500 ms
Writing library : LAME3.98.2

Скриншоты


Альтернативный хост





Показать сообщения:    

Текущее время: 03-Дек 20:46

Часовой пояс: UTC + 3


Вы не можете начинать темы
Вы не можете отвечать на сообщения
Вы не можете редактировать свои сообщения
Вы не можете удалять свои сообщения
Вы не можете голосовать в опросах
Вы не можете прикреплять файлы к сообщениям
Вы не можете скачивать файлы