Р. Р. Р. (Юрий Еремин) [2014 г., драма, SATRip] Московский театр имени Моссовета


 

[Цитировать]

Р. Р. Р. (2 части) Название театра: Московский театр имени Моссовета.
Год выпуска: 2014.
Жанр: драма.
Продолжительность: 01:23:08 + 01:19:04 (02:42:12).
Режиссеры: народный артист России Юрий Еремин, Николай Неклюдов.
Действующие лица и исполнители:
Родион Раскольников, бывший студент - Алексей Трофимов,
Пульхерия Александровна, его мать - заслуженная артистка России Ольга Анохина,
Дуня, его сестра - Анна Михайловская,
Порфирий Петрович, сыщик - народный артист России Виктор Сухоруков,
Дмитрий Разумихин, его племянник - Андрей Смирнов,
Порох, поручик - Виктор Гордеев,
Мармеладов, бывший чиновник - народный артист России Владимир Сулимов,
Катерина Ивановна, его жена - народная артистка России Нина Дробышева,
Соня, его дочь - Анастасия Пронина,
Свидригайлов, помещик - заслуженный артист России Александр Яцко,
Лужин, жених - Роман Кириллов,
Алена Ивановна, ростовщица - Юлия Чирко,
Лизавета, ее сестра - Марина Кондратьева,
Микола, красильщик - Юрий Беркун,
Редактор - Александр Емельянов.
Описание:
По мотивам романа Федора Михайловича Достоевского "Преступление и наказание".
О убийстве старушки-процентщицы и последующих угрызениях совести Родиона Романовича Раскольникова (Р.Р.Р.).

Дополнительная информация:
Страна: Россия .
Выпущено: © ГТРК "Культура", © По заказу Правительства Москвы.
Сценарий, постановка, сценография и костюмы: народный артист России Юрий Еремин.
Автор: Федор Достоевский.
Оформление света: Алексей Попов.
Музыка из произведений Петра Ильича Чайковского и Клинта Мэнселла в обработке Александра Дронова.
Видео: Сергей Васильев.
Режиссёр телеверсии: Николай Неклюдов.
Оператор-постановщик: Евгений Тимохин.

О спектакле.
Релиз


Качество видео:...SATRip
Формат:.................AVI
Видео:..720x400 (1.80:1), 25 fps, XviD MPEG-4 ~1778 kbps avg, 0.25 bit/pixel
Аудио:..44.100 kHz, MPEG Layer 3, 2 ch, ~128.00 kbps avg

Отчет Media Info

1-я часть:
General
Complete name : R.R.R_Teatr.Mossoveta.(2.chasti.iz.2).2014.XviD.SATRip.fenixclub\R.R.R.1.avi
Format : AVI
Format/Info : Audio Video Interleave
File size : 1.11 GiB
Duration : 1h 23mn
Overall bit rate : 1 917 Kbps
Writing application : VirtualDubModRus 1.5.10.2 (build 2542/release)
Writing library : VirtualDub build 32842/release
Video
ID : 0
Format : MPEG-4 Visual
Format profile : Advanced Simple@L5
Format settings, BVOP : 2
Format settings, QPel : No
Format settings, GMC : No warppoints
Format settings, Matrix : Default (H.263)
Muxing mode : Packed bitstream
Codec ID : XVID
Codec ID/Hint : XviD
Duration : 1h 23mn
Bit rate : 1 779 Kbps
Width : 720 pixels
Height : 400 pixels
Display aspect ratio : 16:9
Frame rate : 25.000 fps
Color space : YUV
Chroma subsampling : 4:2:0
Bit depth : 8 bits
Scan type : Progressive
Compression mode : Lossy
Bits/(Pixel*Frame) : 0.247
Stream size : 1.03 GiB (93%)
Writing library : XviD 73
Audio
ID : 1
Format : MPEG Audio
Format version : Version 1
Format profile : Layer 3
Mode : Joint stereo
Mode extension : MS Stereo
Codec ID : 55
Codec ID/Hint : MP3
Duration : 1h 23mn
Bit rate mode : Constant
Bit rate : 128 Kbps
Channel(s) : 2 channels
Sampling rate : 44.1 KHz
Compression mode : Lossy
Stream size : 76.1 MiB (7%)
Alignment : Split accross interleaves
Interleave, duration : 40 ms (1.00 video frame)
Interleave, preload duratio : 500 ms
Writing library : LAME3.98.2
12-я часть:
General
Complete name : R.R.R_Teatr.Mossoveta.(2.chasti.iz.2).2014.XviD.SATRip.fenixclub\R.R.R.2.avi
Format : AVI
Format/Info : Audio Video Interleave
File size : 1.06 GiB
Duration : 1h 19mn
Overall bit rate : 1 917 Kbps
Writing application : VirtualDubModRus 1.5.10.2 (build 2542/release)
Writing library : VirtualDub build 32842/release
Video
ID : 0
Format : MPEG-4 Visual
Format profile : Advanced Simple@L5
Format settings, BVOP : 2
Format settings, QPel : No
Format settings, GMC : No warppoints
Format settings, Matrix : Default (H.263)
Muxing mode : Packed bitstream
Codec ID : XVID
Codec ID/Hint : XviD
Duration : 1h 19mn
Bit rate : 1 779 Kbps
Width : 720 pixels
Height : 400 pixels
Display aspect ratio : 16:9
Frame rate : 25.000 fps
Color space : YUV
Chroma subsampling : 4:2:0
Bit depth : 8 bits
Scan type : Progressive
Compression mode : Lossy
Bits/(Pixel*Frame) : 0.247
Stream size : 1 006 MiB (93%)
Writing library : XviD 73
Audio
ID : 1
Format : MPEG Audio
Format version : Version 1
Format profile : Layer 3
Mode : Joint stereo
Codec ID : 55
Codec ID/Hint : MP3
Duration : 1h 19mn
Bit rate mode : Constant
Bit rate : 128 Kbps
Channel(s) : 2 channels
Sampling rate : 44.1 KHz
Compression mode : Lossy
Stream size : 72.4 MiB (7%)
Alignment : Split accross interleaves
Interleave, duration : 40 ms (1.00 video frame)
Interleave, preload duratio : 500 ms
Writing library : LAME3.98.2

Скриншот с названием постановки

Скриншоты


Альтернативный хост





Показать сообщения:    

Текущее время: 04-Дек 17:19

Часовой пояс: UTC + 3


Вы не можете начинать темы
Вы не можете отвечать на сообщения
Вы не можете редактировать свои сообщения
Вы не можете удалять свои сообщения
Вы не можете голосовать в опросах
Вы не можете прикреплять файлы к сообщениям
Вы не можете скачивать файлы