Матадор (Виктор Панов) [2014 г., моноспектакль, WEB-DLRip] Драматический театр им. А. С. Пушкина, г. Магнитогорск


 

[Цитировать]

Матадор Название театра: Драматический театр им. А. С. Пушкина, г. Магнитогорск.
Жанр: моноспектакль.
Год выпуска: 2014.
Продолжительность: 01:43:25.
Режиссер: Рузанна Мовсесян (Москва).
В главной роли: Андрей Майоров.
Описание:
«Матадор» – это моноспектакль и спектакль-лекция. Экзотичная для большинства наших зрителей информация о корриде, сопровождающаяся соответствующим видеорядом, переплетается с рассказом о перипетиях судьбы человека, не привыкшего сдаваться. Пьеса основана на реальных событиях. Роман Карпухин – единственный в мире русский матадор, выступавший на аренах первой категории.
…Это история человека с уникальной судьбой, молодость которого пришлась на 90-е годы. Спецназовец, руководитель школы бальных танцев, в итоге оказывается в Испании, попадает в школу корриды и становится матадором высшей лиги.

Дополнительная информация:
Страна: Россия .
Автор: Роман Карпухин.

О спектакле.
Релиз
Рип sharky.

Качество: WEB-DLRip
Формат: AVI
Видео:..704x528 (1.33:1), 25 fps, XviD build 47 ~1394 kbps avg, 0.15 bit/pixel
Аудио:..44.100 kHz, MPEG Layer 3, 2 ch, ~128.00 kbps avg

Отчет Media Info

Общее
Полное имя : Matador_DT.im.Pushkina.Magnitogorsk.2014.XviD.WEB-DLRip.fenixclub.avi
Format : AVI
Format/Info : Audio Video Interleave
File size : 1.11 GiB
Duration : 1h 43mn
Overall bit rate : 1 532 Kbps
Writing application : VirtualDubMod 1.5.10.2 (build 2540/release)
Writing library : VirtualDubMod build 2540/release
Video
ID : 0
Format : MPEG-4 Visual
Format profile : Advanced Simple@L5
Format settings, BVOP : 1
Format settings, QPel : No
Format settings, GMC : No warppoints
Format settings, Matrix : Default (H.263)
Codec ID : XVID
Codec ID/Hint : XviD
Duration : 1h 43mn
Bit rate : 1 394 Kbps
Width : 704 pixels
Height : 528 pixels
Display aspect ratio : 4:3
Frame rate : 25.000 fps
Color space : YUV
Chroma subsampling : 4:2:0
Bit depth : 8 bits
Scan type : Progressive
Compression mode : Lossy
Bits/(Pixel*Frame) : 0.150
Stream size : 1.01 GiB (91%)
Writing library : XviD 1.2.0.dev47 (UTC 2006-11-01)
Audio
ID : 1
Format : MPEG Audio
Format version : Version 1
Format profile : Layer 3
Codec ID : 55
Codec ID/Hint : MP3
Duration : 1h 43mn
Bit rate mode : Constant
Bit rate : 128 Kbps
Channel(s) : 2 channels
Sampling rate : 44.1 KHz
Compression mode : Lossy
Stream size : 94.7 MiB (8%)
Alignment : Split accross interleaves
Interleave, duration : 40 ms (1.00 video frame)
Interleave, preload duratio : 500 ms
Writing library : LAME3.97
Encoding settings : -m s -V 4 -q 2 -lowpass 17 -b 128

Скриншоты

Альтернативный хост




Показать сообщения:    

Текущее время: 09-Дек 20:29

Часовой пояс: UTC + 3


Вы не можете начинать темы
Вы не можете отвечать на сообщения
Вы не можете редактировать свои сообщения
Вы не можете удалять свои сообщения
Вы не можете голосовать в опросах
Вы не можете прикреплять файлы к сообщениям
Вы не можете скачивать файлы