Курск (Виктор Панов) [2010 г., драматическая история в стиле танго, TVRip] Архангельский областной молодежный театр


 

[Цитировать]

Курск Название театра: Архангельский областной молодежный театр.
Жанр: драматическая история в стиле танго.
Год выпуска: 2010.
Продолжительность: 01:32:14.
Режиссер: заслуженный деятель искусств России Виктор Панов.
Действующие лица и исполнители:
Боцман, старший боцман "Курска" Николай Мизяк - Евгений Шкаев,
Дмитрий Колесников, капитан-лейтенант, командир 7-ого турбинного отсека - Степан Полежаев,
Ольга Колесникова, его жена - Елена Агаркова,
Рашид Аряпов, капитан-лейтенант, командир 6-ого реакторного отсека - Назар Онищук,
Адмирал, командующий Северным флотом Вячеслав Попов - заслуженный артист России Илья Глущенко,
Женщина в черном - Татьяна Смирнова,
Офицер штаба 1 - Максим Дуплик,
Офицер штаба 2 - Виктор Бегунов,
Офицер штаба 3 - Александр Селезнев,
Мать матроса с "Курска" - заслуженная артистка России Наталья Малевинская,
Старпом, старший помощник командира на "Курске" - Антон Чистяков,
Матрос посыльный - Виталий Стокроцкий,
Матрос - Александр Берестень,
Голос 1 - Евгений Новоселов,
Голос 2 - Александр Берестень,
Голос 3 - Виталий Стокроцкий,
Пилот - Антон Чистяков,
Командир спасательного аппарата АС-34 - Иван Черемный,
Командир спасательного аппарата АС-32 - Евгений Новоселов,
Русская ведущая новостей - Анна Белова,
Американская ведущая новостей - Мария Гирс.
Описание:
69°36'59,6" северной широты, 37°34'28,7" восточной долготы... Отныне это последний причал лучшего корабля Северного флота - атомной подводной лодки "Курск" (бортовой номер К-141). С той самой минуты, когда разнеслась весть о трагедии, за судьбой российской субмарины и ее экипажа следил весь мир. Одна версия сменяла другую, но причины гибели атомохода для широкой общественности до сих пор остаются загадкой. У трагедии, случившейся в Баренцевом море, сотни вопросов...
Режиссер В. П. Панов о спектакле "Курск":
"Курск" - это наша боль, это наша рана. Это рана всей страны.
И в то же время подводная лодка "Курск" - это наша техническая гордость. Что же послужило причиной этой страшной аварии? Халатность? Неподготовленность к подобной ситуации? Или может после 10-летней разрухи, когда моряки не выходили в море, а самолеты не поднимались в воздух, были потеряны навыки владения военной техникой? Или все-таки это было действительно столкновение с другой подводной лодкой?
Театр не отвечает на вопросы. Театр их ставит. По прошествии 10 лет пусть зрители сами для себя найдут здесь ответы. В нашем спектакле мы показываем хронику событий, версии гибели "Курска". Мы хотим показать в спектакле ту атмосферу, в которой оказались 118 членов экипажа подводной лодки "Курск". Мы ставим спектакль не о железе, а о людях. Мы можем с гордостью говорить о той силе духа, которая не дала ситуации перерасти в панику. Только очень сильный человек как капитан Колесников мог написать в предсмертной записке "Не надо отчаиваться!" Это как напутствие, как заклинание всем нам живущим. К сожалению, сейчас вышло из употребления такое высокое понятие как патриотизм, а эти ребята были настоящими патриотами страны и выбранной ими самой суровой профессии - подводник. Мы своим спектаклем хотим попросить прощения у этих ребят, у их семей, матерей, жен, детей.

Дополнительная информация:
Страна: Россия .
Выпущено: © ООО "ПОМОРФИЛЬМ".
Автор: Саша Янович.
Сценография: Ирина Бируля (Санкт-Петербург).
Световое оформление: Сергей Скорнецкий (Москва).
Хореография: О. Шанина.
Пластика: Николай Щетнев.
В спектакле использована музыка: Альфреда Шнитке, Георгия Свиридова.
Песни: Гарика Сукачева, Владимира Высоцкого, Витаса.
Режиссер монтажа: Елена Шнайдер.
Операторы: Игорь Истомин, Алексей Седых, Виктор Коноплев.
Запись: ноябрь 2010 года.

О спектакле.
Релиз

Качество: TVRip
Формат: AVI
Видео:..640x480 (1.33:1), 25 fps, XviD MPEG-4 ~1553 kbps avg, 0.20 bit/pixel
Аудио:..44.100 kHz, MPEG Layer 3, 2 ch, ~128.00 kbps avg

Отчет Media Info

Общее
Полное имя : Kursk_Arhangel'skij.molodyozhnyj.teatr.2010.XviD.TVRip.fenixclub.avi
Format : AVI
Format/Info : Audio Video Interleave
File size : 1.09 GiB
Duration : 1h 32mn
Overall bit rate : 1 692 Kbps
Writing application : VirtualDubModRus 1.5.10.2 (build 2542/release)
Writing library : VirtualDub build 32842/release
Video
ID : 0
Format : MPEG-4 Visual
Format profile : Advanced Simple@L5
Format settings, BVOP : 2
Format settings, QPel : No
Format settings, GMC : No warppoints
Format settings, Matrix : Default (H.263)
Muxing mode : Packed bitstream
Codec ID : XVID
Codec ID/Hint : XviD
Duration : 1h 32mn
Bit rate : 1 554 Kbps
Width : 640 pixels
Height : 480 pixels
Display aspect ratio : 4:3
Frame rate : 25.000 fps
Color space : YUV
Chroma subsampling : 4:2:0
Bit depth : 8 bits
Scan type : Progressive
Compression mode : Lossy
Bits/(Pixel*Frame) : 0.202
Stream size : 1.00 GiB (92%)
Writing library : XviD 73
Audio
ID : 1
Format : MPEG Audio
Format version : Version 1
Format profile : Layer 3
Mode : Joint stereo
Mode extension : MS Stereo
Codec ID : 55
Codec ID/Hint : MP3
Duration : 1h 32mn
Bit rate mode : Constant
Bit rate : 128 Kbps
Channel(s) : 2 channels
Sampling rate : 44.1 KHz
Compression mode : Lossy
Stream size : 84.4 MiB (8%)
Alignment : Split accross interleaves
Interleave, duration : 40 ms (1.00 video frame)
Interleave, preload duratio : 500 ms
Writing library : LAME3.98.2

Скриншоты


Альтернативный хост





Показать сообщения:    

Текущее время: 04-Дек 21:22

Часовой пояс: UTC + 3


Вы не можете начинать темы
Вы не можете отвечать на сообщения
Вы не можете редактировать свои сообщения
Вы не можете удалять свои сообщения
Вы не можете голосовать в опросах
Вы не можете прикреплять файлы к сообщениям
Вы не можете скачивать файлы