Дядя Ваня (Даниил Мунтян) [2013 г., Молдова, сцены из сельской жизни, CAMRip] Театральный факультет Славянского университета г. Кишинёв


 

[Цитировать]

Дядя Ваня Название театра: Театральный факультет Славянского университета г. Кишинёв.
Год выпуска: 2013.
Страна: Молдова .
Жанр: сцены из сельской жизни.
Продолжительность: 01:32:55.
Язык: русский.
Режиссер: Даниил Мунтян.
Действующие лица и исполнители:
Серебряков Александр Владимирович - Яков Грибиненко,
Елена Андреевна - Аэлита Хлопотова,
Соня - Марта Трохимчук,
Войницкий Иван Петрович - Виталий Балтарь,
Астров Михаил Львович - Александр Чупрун,
Телегин Илья Ильич - Даниил Решетко,
Мария Васильевна - Ксения Куренкова,
Марина - Кристина Жоряну.
О спектакле:
Спектакль по одноименной пьесе Антона Павловича Чехова.
Постановка студентов театрального факультета Славянского университета (г. Кишинёв).

Дополнительная информация:
Релиз
Рип sharky.

Качество видео:...CAMRip
Формат:.................AVI
Видео:..688x512 (1.34:1), 25 fps, XviD MPEG-4 ~1461 kbps avg, 0.17 bit/pixel
Аудио:..48 kHz, MPEG Layer 3, 2 ch, ~128.00 kbps avg

Отчет MI

Общее
Полное имя : Dyadya.Vanya_Teatral'nyj.fakul'tet.Slavyanskogo.universiteta.2013.XviD.CAMRip.fenixclub.avi
Формат : AVI
Формат/Информация : Audio Video Interleave
Размер файла : 1,09 Гбайт
Продолжительность : 1 ч. 32 м.
Общий поток : 1682 Кбит/сек
Программа кодирования : VirtualDubMod 1.5.10.2 (build 2540/release)
Библиотека кодирования : VirtualDubMod build 2540/release
Видео
Идентификатор : 0
Формат : MPEG-4 Visual
Профиль формата : Advanced Simple@L5
Параметр BVOP формата : 1
Параметр QPel формата : Нет
Параметр GMC формата : Без точки перехода
Параметр матрицы формата : Default (H.263)
Идентификатор кодека : XVID
Идентификатор кодека/Подсказка : XviD
Продолжительность : 1 ч. 32 м.
Битрейт : 1480 Кбит/сек
Ширина : 704 пикселя
Высота : 400 пикселей
Соотношение сторон : 16:9
Частота кадров : 25,000 кадров/сек
Цветовое пространство : YUV
Субдискретизация насыщенности : 4:2:0
Битовая глубина : 8 бит
Тип развёртки : Прогрессивная
Метод сжатия : С потерями
Бит/(Пиксели*Кадры) : 0.210
Размер потока : 984 Мбайт (88%)
Библиотека кодирования : XviD 1.2.0.dev47 (UTC 2006-11-01)
Аудио
Идентификатор : 1
Формат : AC-3
Формат/Информация : Audio Coding 3
Расширение режима : CM (complete main)
Параметр Endianness формата : Big
Идентификатор кодека : 2000
Продолжительность : 1 ч. 32 м.
Вид битрейта : Постоянный
Битрейт : 192 Кбит/сек
Каналы : 2 канала
Расположение каналов : Front: L R
Частота : 48,0 КГц
Битовая глубина : 16 бит
Метод сжатия : С потерями
Размер потока : 128 Мбайт (11%)
Выравнивание : Разделение по промежуткам
Продолжительность промежутка : 40 мс. (1,00 видеокадр)
Время предзагрузки промежутка : 500 мс.

Скриншоты

Альтернативный хост




Показать сообщения:    

Текущее время: 07-Дек 23:12

Часовой пояс: UTC + 3


Вы не можете начинать темы
Вы не можете отвечать на сообщения
Вы не можете редактировать свои сообщения
Вы не можете удалять свои сообщения
Вы не можете голосовать в опросах
Вы не можете прикреплять файлы к сообщениям
Вы не можете скачивать файлы