Соловьиная ночь (Андрей Бадулин) [2013 г., лирическая драма, SATRip] Центральный академический театр Российской Армии


 

[Цитировать]

Соловьиная ночь (2 действия) Название театра: Центральный академический театр Российской Армии.
Жанр: лирическая драма.
Год выпуска: 2013.
Продолжительность: 01:19:59 + 00:47:20 (02:07:19).
Режиссеры: заслуженный артист России Андрей Бадулин, Татьяна Александрова.
Действующие лица и исполнители:
Бородин - Константин Днепровский,
Инга - Ольга Никитина,
Лукьянов - заслуженный артист России Андрей Новиков,
Федоровский - Сергей Смирнов,
Тимофеев - Вадим Пожарский,
Зубов - Сергей Федюшкин,
Фирсов - Тимур Еремеев,
Кузовков - Александр Леонтьев,
Кобылко - Денис Дёмин,
Ниночка - Татьяна Морозова,
Катенька - Мария Белоненко,
Сашенька - Ольга Герасимова,
Профессор - Александр Разин,
Зизи - Елена Сванидзе,
Рядовые: Сергей Иванюк, Денис Кутузов, Алексей Горячев, Роман Панов,
Немцы-музыканты: заслуженный артист России Сергей Комаров, Александр Богданов, Мария Белялова.
Описание:
Автор Валентин Ежов, с его вниманием к каждой человеческой судьбе, к отдельно взятому обыкновенному человеку, к умению разглядеть героизм, проявляющийся в самых простых жизненных ситуациях, честность в оценках поступков людей, - хорошо знаком по сценариям всеми любимых кинокартин таких, как "Баллада о солдате", "Белое солнце пустыни", "Сибириада" и многих других.
Это короткая пронзительная история любви совсем еще юных людей, ровесников - русского солдата и немецкой девушки, случившаяся в маленьком местечке в Германии 1945 года сразу после Победы. Казалось бы ни что не может омрачить радость этого светлого чувства, копившееся все эти долгие 4 года войны в юных сердцах героев спектакля. Но неумолимо вторгается жесткая послевоенная реальность в лице Верховного Главнокомандующего, отдавшего "оккупационный приказ", по которому все, кто лично контактирует с немцами, не взирая на конкретную ситуацию, считается предателем и подлежит расстрелу. Вот на этом-то поселке и проверяются все действующие лица событий, стремительно разворачивающихся вокруг Петра Бородина и Инги, так "не вовремя" влюбившихся в друг друга.

Дополнительная информация:
Страна: Россия .
Выпущено: © ООО "Яуза-Фильм", © по заказу Правительства Москвы.
Режиссер-постановщик спектакля: заслуженный артист России Андрей Бадулин.
Автор: Валентин Ежов.
Художник-постановщик: Михаил Смирнов.
Балетмейстер-постановщик: Ирина Филиппова.
Композитор: Рубен Затикян.
Премьера спектакля состоялась в апреле 2008 года.
Режиссер телеверсии: Татьяна Александрова.
Оператор-постановщик: Сергей Стариков.

О спектакле.
Релиз

Качество: SATRip
Формат: AVI
Видео:..720x400 (1.80:1), 25 fps, XviD MPEG-4 ~1502 kbps avg, 0.21 bit/pixel
Аудио:..44.100 kHz, MPEG Layer 3, 2 ch, ~128.00 kbps avg

Отчет Media Info

1-я часть
Общее
Полное имя : Solov'inaya.noch_CATRA.(2.dejstviya.iz.2).2013.XviD.SATRip.fenixclub\Solov'inaya.noch_CATRA.1.avi
Формат : AVI
Формат/Информация : Audio Video Interleave
Размер файла : 939 Мбайт
Продолжительность : 1 ч. 19 м.
Общий поток : 1641 Кбит/сек
Программа кодирования : VirtualDubModRus 1.5.10.2 (build 2542/release)
Библиотека кодирования : VirtualDub build 32842/release
Видео
Идентификатор : 0
Формат : MPEG-4 Visual
Профиль формата : Advanced Simple@L5
Параметр BVOP формата : 2
Параметр QPel формата : Нет
Параметр GMC формата : Без точки перехода
Параметр матрицы формата : Default (H.263)
Режим смешивания : Сжатый битовый поток
Идентификатор кодека : XVID
Идентификатор кодека/Подсказка : XviD
Продолжительность : 1 ч. 19 м.
Битрейт : 1503 Кбит/сек
Ширина : 720 пикселей
Высота : 400 пикселей
Соотношение сторон : 16:9
Частота кадров : 25,000 кадров/сек
Цветовое пространство : YUV
Субдискретизация насыщенности : 4:2:0
Битовая глубина : 8 бит
Тип развёртки : Прогрессивная
Метод сжатия : С потерями
Бит/(Пиксели*Кадры) : 0.209
Размер потока : 860 Мбайт (92%)
Библиотека кодирования : XviD 73
Аудио
Идентификатор : 1
Формат : MPEG Audio
Версия формата : Version 1
Профиль формата : Layer 3
Режим : Joint stereo
Расширение режима : MS Stereo
Идентификатор кодека : 55
Идентификатор кодека/Подсказка : MP3
Продолжительность : 1 ч. 19 м.
Вид битрейта : Постоянный
Битрейт : 128 Кбит/сек
Каналы : 2 канала
Частота : 44,1 КГц
Метод сжатия : С потерями
Размер потока : 73,2 Мбайт (8%)
Выравнивание : Разделение по промежуткам
Продолжительность промежутка : 40 мс. (1,00 видеокадр)
Время предзагрузки промежутка : 500 мс.
Библиотека кодирования : LAME3.98.2
2-я часть
Общее
Полное имя : Solov'inaya.noch_CATRA.(2.dejstviya.iz.2).2013.XviD.SATRip.fenixclub\Solov'inaya.noch_CATRA.2.avi
Формат : AVI
Формат/Информация : Audio Video Interleave
Размер файла : 562 Мбайт
Продолжительность : 47 м.
Общий поток : 1661 Кбит/сек
Программа кодирования : VirtualDubModRus 1.5.10.2 (build 2542/release)
Библиотека кодирования : VirtualDub build 32842/release
Видео
Идентификатор : 0
Формат : MPEG-4 Visual
Профиль формата : Advanced Simple@L5
Параметр BVOP формата : 2
Параметр QPel формата : Нет
Параметр GMC формата : Без точки перехода
Параметр матрицы формата : Default (H.263)
Режим смешивания : Сжатый битовый поток
Идентификатор кодека : XVID
Идентификатор кодека/Подсказка : XviD
Продолжительность : 47 м.
Битрейт : 1523 Кбит/сек
Ширина : 720 пикселей
Высота : 400 пикселей
Соотношение сторон : 16:9
Частота кадров : 25,000 кадров/сек
Цветовое пространство : YUV
Субдискретизация насыщенности : 4:2:0
Битовая глубина : 8 бит
Тип развёртки : Прогрессивная
Метод сжатия : С потерями
Бит/(Пиксели*Кадры) : 0.212
Размер потока : 516 Мбайт (92%)
Библиотека кодирования : XviD 73
Аудио
Идентификатор : 1
Формат : MPEG Audio
Версия формата : Version 1
Профиль формата : Layer 3
Режим : Joint stereo
Расширение режима : MS Stereo
Идентификатор кодека : 55
Идентификатор кодека/Подсказка : MP3
Продолжительность : 47 м.
Вид битрейта : Постоянный
Битрейт : 128 Кбит/сек
Каналы : 2 канала
Частота : 44,1 КГц
Метод сжатия : С потерями
Размер потока : 43,3 Мбайт (8%)
Выравнивание : Разделение по промежуткам
Продолжительность промежутка : 40 мс. (1,00 видеокадр)
Время предзагрузки промежутка : 500 мс.
Библиотека кодирования : LAME3.98.2

Скриншоты


Альтернативный хост





Показать сообщения:    

Текущее время: 21-Янв 11:36

Часовой пояс: UTC + 3


Вы не можете начинать темы
Вы не можете отвечать на сообщения
Вы не можете редактировать свои сообщения
Вы не можете удалять свои сообщения
Вы не можете голосовать в опросах
Вы не можете прикреплять файлы к сообщениям
Вы не можете скачивать файлы